TORRENTS43.XYZ

Скачать Потеря надежды / Hope Lost (2015) HDRip


Потеря надежды / Hope Lost (2015) HDRip
Производство: Италия / Ambi Pictures, Iervolino Turco
Жанр: Драма, Триллер

Режиссер: Дэвид Петруччи
Актеры: Дэнни Трехо, Миша Бартон, Майкл Мэдсен, Дэниэл Болдуин, Андрей Чернышов, Диего Паготто, Франческа Агостини, Алессия Наварро

Описание:
Юная София мечтает о карьере модели и, казалось бы, ее желания воплощаются, когда в баре она встречает кинопродюсера, к которому она ходила на прослушивание. Тот предлагает ей поехать в Италию для съемок фильма - и девушка соглашается, не зная, что попадет прямиком в Ад.


Дата мировой премьеры: 1 октября 2015

Продолжительность: 01:34:25
Качество видео: HDRip
Перевод: Многоголосый закадровый, профессиональный (официальный звук)
Субтитры: отсутствуют

Видео: Xvid, 640x272, ~965 kbps
Аудио: MP3, 2 ch, 128 kbps, CBR

Mediainfo:

Код: выделить все

Формат                                   : AVI
Формат/Информация                        : Audio Video Interleave
Размер файла                             : 745 Мбайт
Продолжительность                        : 1 ч. 34 м.
Общий поток                              : 1103 Кбит/сек
Программа кодирования                    : VirtualDubMod 1.5.10.3 (build 2550/release)
Библиотека кодирования                   : VirtualDubMod build 2550/release

Видео
Идентификатор                            : 0
Формат                                   : MPEG-4 Visual
Профиль формата                          : Advanced Simple@L5
Параметр BVOP формата                    : 1
Параметр QPel формата                    : Нет
Параметр GMC формата                     : Без точки перехода
Параметр матрицы формата                 : Выборочная
Идентификатор кодека                     : XVID
Идентификатор кодека/Подсказка           : XviD
Продолжительность                        : 1 ч. 34 м.
Битрейт                                  : 966 Кбит/сек
Ширина                                   : 640 пикселей
Высота                                   : 272 пикселя
Соотношение сторон                       : 2,35:1
Частота кадров                           : 23,976 кадра/сек
Цветовое пространство                    : YUV
Субдискретизация насыщенности            : 4:2:0
Битовая глубина                          : 8 бит
Тип развёртки                            : Прогрессивная
Метод сжатия                             : С потерями
Бит/(Пиксели*Кадры)                      : 0.231
Размер потока                            : 652 Мбайт (88%)
Библиотека кодирования                   : XviD 73

Аудио
Идентификатор                            : 1
Формат                                   : MPEG Audio
Версия формата                           : Version 1
Профиль формата                          : Layer 3
Идентификатор кодека                     : 55
Идентификатор кодека/Подсказка           : MP3
Продолжительность                        : 1 ч. 34 м.
Вид битрейта                             : Постоянный
Битрейт                                  : 128 Кбит/сек
Каналы                                   : 2 канала
Частота                                  : 48,0 КГц
Метод сжатия                             : С потерями
Размер потока                            : 86,4 Мбайт (12%)
Выравнивание                             : Соединение по промежуткам
Продолжительность промежутка             : 42  мс. (1,00 видеокадр)
Время предзагрузки промежутка            : 504  мс.
Библиотека кодирования                   : LAME3.99r
Настройки программы                      : -m s -V 4 -q 2 -lowpass 17 -b 128
Скриншоты:


Смотреть Online

http://moonwalk.cc/video/f7a055d9a89dcf39/iframe
Детали торрента:
Название:Потеря надежды / Hope Lost (2015) HDRip
Дата добавления:14 Мар 2016 23:54:14
Размер:745 MB
Раздают:1
Качают:0
Форум:Зарубежные Фильмы (HD*Rip/LQ, DVDRip, SATRip, VHSRip)

All rights reserved © 2015-2018