TORRENTS43.XYZ

Скачать Лучше звоните Солу / Better Call Saul (2016) WEB-DL [H.264/1080p-LQ] (сезон 2, серии 1-10 из 10) LostFilm


Лучше звоните Солу / Better Call Saul (2016) WEB-DL [H.264/1080p-LQ] (сезон 2, серии 1-10 из 10)
Производство: США / High Bridge Productions, Crystal Diner Productions, Gran Via Productions
Жанр: драма, криминал

Режиссер: Адам Бернштейн, Лариса Кондрацки, Томас Шнауз
Актеры: Боб Оденкёрк, Джонатан Бэнкс, Ри Сихорн, Майкл МакКин, Патрик Фабиан, Майкл Мэндо, Стив Ларесэ, Джули Энн Эмери, Керри Кондон, Джереми Шамос и др.

Описание:
Сериал «Лучше звоните Солу» рассказывает историю Сола Гудмена, одного из персонажей криминального телесериала «Во все тяжкие».
Этот эксцентричный адвокат по уголовным делам, роль которого, как и в оригинальном сериале, исполняет актер Боб Оденкирк, имеет репутацию человека ушлого и изворотливого, готового продать душу хоть самому дьяволу, но вытащить своих клиентов из проблем. В сериале «Лучше звоните Солу» зрителю предстоит узнать о тех испытаниях и невзгодах, что преследовали Сола, до того как он познакомился с главным персонажем «Во все тяжкие» Уолтером Уайтом, в то время, когда он предпринимал шаги для открытия собственной адвокатской конторы.



Продолжительность: ~00:46:00 серия
Качество видео: WEB-DL 1080p
Перевод: Многоголосый закадровый, профессиональный - LostFilm
Вид субтитров: вшитые отключаемые
Язык субтитров: русский, английский

Видео: H.264/AVC, 1916x1076 (16:9), ~5000 kb/s
Аудио Rus: AC-3, 48,0 kHz, 2 ch, 384 kb/s — многоголосый закадровый
Аудио Eng: AC-3, 48,0 kHz, 6 ch, 384 kb/s — оригинал

MediaInfo

Общее
Уникальный идентификатор : 230067798761327067245669092205318830033 (0xAD15723FE39939A88E1EC1511996F7D1)
Полное имя : D:\Лучше звоните Солу (сезон 2) Better Call Saul (2016) WEB-DL 1080p - LostFilm\Better.Call.Saul.S02E01.WEBDL1080p.Rus.Eng.DV.LostFilm.mkv
Формат : Matroska
Версия формата : Version 4 / Version 2
Размер файла : 1,95 Гбайт
Продолжительность : 46 м.
Общий поток : 5950 Кбит/сек
Название фильма : Better.Call.Saul.S02E01.WEBDL1080p.Rus.Eng.DV.LostFilm / torrents43.xyz />Дата кодирования : UTC 2016-02-18 23:16:03
Программа кодирования : mkvmerge v8.2.0 ('World of Adventure') 64bit
Библиотека кодирования : libebml v1.3.1 + libmatroska v1.4.2
Обложка : Yes
Attachments : Cover

Видео
Идентификатор : 1
Формат : AVC
Формат/Информация : Advanced Video Codec
Профиль формата : High@L4
Параметр CABAC формата : Да
Параметр ReFrames формата : 4 кадра
Идентификатор кодека : V_MPEG4/ISO/AVC
Продолжительность : 46 м.
Битрейт : 5180 Кбит/сек
Ширина : 1916 пикселей
Высота : 1076 пикселей
Соотношение сторон : 16:9
Режим частоты кадров : Постоянный
Частота кадров : 23,976 (23976/1000) кадра/сек
Цветовое пространство : YUV
Субдискретизация насыщенности : 4:2:0
Битовая глубина : 8 бит
Тип развёртки : Прогрессивная
Бит/(Пиксели*Кадры) : 0.105
Размер потока : 1,70 Гбайт (87%)
Язык : English
Default : Да
Forced : Нет
Цветовой диапазон : Limited
Основные цвета : BT.709
Характеристики трансфера : BT.709
Коэффициенты матрицы : BT.709

Аудио #1
Идентификатор : 2
Формат : AC-3
Формат/Информация : Audio Coding 3
Расширение режима : CM (complete main)
Параметр Endianness формата : Big
Идентификатор кодека : A_AC3
Продолжительность : 46 м.
Вид битрейта : Постоянный
Битрейт : 384 Кбит/сек
Каналы : 2 канала
Расположение каналов : Front: L R
Частота : 48,0 КГц
Частота кадров : 31,250 кадров/сек (1536 spf)
Метод сжатия : С потерями
Задержка видео : 1 с. 100 мс.
Размер потока : 129 Мбайт (6%)
Заголовок : LostFilm
Язык : Russian
Default : Да
Forced : Нет

Аудио #2
Идентификатор : 3
Формат : AC-3
Формат/Информация : Audio Coding 3
Расширение режима : CM (complete main)
Параметр Endianness формата : Big
Идентификатор кодека : A_AC3
Продолжительность : 46 м.
Вид битрейта : Постоянный
Битрейт : 384 Кбит/сек
Каналы : 6 каналов
Расположение каналов : Front: L C R, Side: L R, LFE
Частота : 48,0 КГц
Частота кадров : 31,250 кадров/сек (1536 spf)
Метод сжатия : С потерями
Размер потока : 129 Мбайт (6%)
Язык : English
Default : Нет
Forced : Нет

Текст
Идентификатор : 4
Формат : UTF-8
Идентификатор кодека : S_TEXT/UTF8
Идентификатор кодека/Информация : UTF-8 Plain Text
Продолжительность : 44 м.
Битрейт : 66 бит/сек
Count of elements : 754
Размер потока : 21,8 Кбайт (0%)
Язык : English
Default : Нет
Forced : Нет

Список серий


01. Switch / Выключатель
02. Cobbler / Пирог
03. Amarillo / Амарильо
04. Gloves Off / Без перчаток
05. Rebecca / Ребекка
06. Bali Ha'i / Бали Хай
07. Inflatable / Надувной
08. Fifi / Фифи
09. Nailed / На волоске
10. Klick / Щёлк!
Скриншоты:



Все релизы сериала "Лучше звоните Солу / Better Call Saul" на Torrents43.xyz

Смотреть Online

http://moonwalk.cc/serial/a09629c58d61c2ae29c6955a0e6d59b5/iframe
Детали торрента:
Название:Лучше звоните Солу / Better Call Saul (2016) WEB-DL [H.264/1080p-LQ] (сезон 2, серии 1-10 из 10) LostFilm
Дата добавления:22 Апр 2016 00:30:51
Размер:18,8 GB
Раздают:16
Качают:1
Форум:Зарубежные сериалы

All rights reserved © 2015-2018