TORRENTS43.XYZ

Скачать Рассмеши комика. Сезон №10. Выпуск №16 (2016.01.02) SATRip


Рассмеши комика. Сезон №10. Выпуск №16 (2016.01.02) SATRip
Телекомпания: 1+1
Жанр: Тв-Шоу, Юмор

Ведущий: Владимир Зеленский, Евгений Кошевой

Описание:
"Рассмеши комика" - народная развлекательная программа, в которой любой человек, обладающий комическим талантом, имеет возможность заработать неплохие деньги. Рассмешить своего знакомого или родственника - это одно дело, а вот заставить смеяться человека, который всю свою жизнь профессионально занимается юмором - такая задача по зубам далеко не каждому ... Зато того, кому удастся рассмешить Евгения Кошевого и Владимира Зеленского, ждет солидное денежное вознаграждение! Никаких жестких правил, никаких серьезных ограничений: заставил комиков смеяться - получи деньги!
Правила:
Выступление каждого участника проходит в пять этапов. Каждый этап длится всего одну минуту. Если после прохождения любого из этапов претенденту удалось рассмешить комиков или хотя бы вызвать у них легкую улыбку, он имеет возможность отказаться от дальнейшей борьбы и забрать свой текущий выигрыш в одну, пять, десять или двадцать тысяч гривен. Те, кто рискнут, и будут бороться до конца, получат возможность заработать целых пятьдесят тысяч гривен. Но в случае если по истечению минуты комики остались хладнокровные, участник покидает проект ни с чем.

Релиз от: Хотт@быч
Продолжительность: ~ 00:44:21
Качество видео: SATRip

Видео: MPEG4, XviD, 720x400 (16:9), 25.000 fps, 1 800 Kbps (0.250 bit/pixel)
Аудио: MP3, 48.0 KHz, 2 ch, 128 Kbps, CBR

Mediainfo:

Код:

Формат                                   : AVI
Формат/Информация                        : Audio Video Interleave
Размер файла                             : 615 Мбайт
Продолжительность                        : 44 м.
Общий поток                              : 1937 Кбит/сек
Программа кодирования                    : VirtualDubMod 1.5.10.3 | www.virtualdub-fr.org || (build 2550/release)
Библиотека кодирования                   : VirtualDub build 29808/release

Видео
Идентификатор                            : 0
Формат                                   : MPEG-4 Visual
Профиль формата                          : Advanced Simple@L5
Параметр BVOP формата                    : 3
Параметр QPel формата                    : Нет
Параметр GMC формата                     : Без точки перехода
Параметр матрицы формата                 : Default (H.263)
Идентификатор кодека                     : XVID
Идентификатор кодека/Подсказка           : XviD
Продолжительность                        : 44 м.
Битрейт                                  : 1800 Кбит/сек
Ширина                                   : 720 пикселей
Высота                                   : 400 пикселей
Соотношение сторон                       : 16:9
Частота кадров                           : 25,000 кадров/сек
Цветовое пространство                    : YUV
Субдискретизация насыщенности            : 4:2:0
Битовая глубина                          : 8 бит
Тип развёртки                            : Прогрессивная
Метод сжатия                             : С потерями
Бит/(Пиксели*Кадры)                      : 0.250
Размер потока                            : 571 Мбайт (93%)
Библиотека кодирования                   : XviD 1.2.1 (UTC 2008-12-04)

Аудио
Идентификатор                            : 1
Формат                                   : MPEG Audio
Версия формата                           : Version 1
Профиль формата                          : Layer 3
Идентификатор кодека                     : 55
Идентификатор кодека/Подсказка           : MP3
Продолжительность                        : 44 м.
Вид битрейта                             : Постоянный
Битрейт                                  : 128 Кбит/сек
Каналы                                   : 2 канала
Частота                                  : 48,0 КГц
Метод сжатия                             : С потерями
Размер потока                            : 40,6 Мбайт (7%)
Выравнивание                             : Соединение по промежуткам
Продолжительность промежутка             : 40  мс. (1,00 видеокадр)
Время предзагрузки промежутка            : 504  мс.
Библиотека кодирования                   : LAME3.99r
Настройки программы                      : -m s -V 4 -q 2 -lowpass 17 -b 128
 
Скриншоты:


Детали торрента:
Название:Рассмеши комика. Сезон №10. Выпуск №16 (2016.01.02) SATRip
Дата добавления:03 Янв 2016 01:17:29
Размер:615 MB
Раздают:
Качают:0
Форум:Украинские шоу

All rights reserved © 2015-2018