TORRENTS43.XYZ

Скачать S.P.L. Звезды судьбы / Saat po long (2005) BDRip [H.264/720p]


S.P.L. Звезды судьбы / Saat po long (2005) BDRip
Производство: Гонконг, Макао | Abba Movies Co. Ltd., 1618 Action Limited, Greek Mythology Entertainment Company
Жанр: Боевик, триллер, драма, криминал

Режиссер: Уилсон Ип
Актеры: Донни Йен, Саймон Ям, Саммо Хунг, Джеки Ву, Лью Кай Чи, Дэнни Саммер, Кен Чанг, Остин Вэй, Тимми Хунг, Тат Чи Чан

Описание:
Sha, Po, Lang — звёзды, чьё положительное или отрицательное влияние восточные астрологи определяют, исходя из их взаимного расположения. Как встанут эти светила сейчас? Детектив Чан заботится о дочери убитого полицейского, мечтая отомстить убийце «королю» мафии По. Чан так сильно жаждет мести, что в его душе стирается грань между добром и злом. В роковое противостояние оказывается невольно вовлечён и Ма, сотрудник Чана. Теперь все трое — участники смертельного поединка...



Продолжительность: 01:33:00
Качество видео: BDRip
Перевод: 2 x Многоголосый закадровый, (профессиональный), профессиональный двухголосый, авторский

Видео: AVC/H.264, 1280x720 (16:9), 24.000 fps, ~4695 kbps, 0.212 bit/ pixel
Аудио №1: 48 kHz, AC3, 6 ch, 448 kbps, CBR | MVO (Total DVD)
Аудио №2: 48 kHz, AC3, 6 ch, 448 kbps, CBR | MVO (Top Industry)
Аудио №3: 48 kHz, AC3, 6 ch, 448 kbps, CBR | DVO (Пётр Гланц и Инна Королёва)
Аудио №4: 48 kHz, AC3, 6 ch, 448 kbps, CBR | AVO (Юрий Сербин)
Аудио №5: 48 kHz, AC3, 6 ch, 448 kbps, CBR | Китайский
Семпл: Скачать

Mediainfo:

Код:

General
Unique ID                      : 214488844520674547730192870810798962224 (0xA15D0C80C632AF9EB4AD69252A3EB630)
Complete name                  : C:\Фильмы\Saat.po.long.2005.BDRip.720p.mkv
Format                         : Matroska
Format version                 : Version 4 / Version 2
File size                      : 4.60 GiB
Duration                       : 1h 33mn
Overall bit rate               : 7 075 Kbps
Encoded date                   : UTC 2015-09-03 08:59:36
Writing application            : mkvmerge v8.2.0 ('World of Adventure') 64bit
Writing library                : libebml v1.3.1 + libmatroska v1.4.2
DURATION                       : 01:33:00.480000000
NUMBER_OF_FRAMES               : 174390
NUMBER_OF_BYTES                : 312506880
_STATISTICS_WRITING_APP        : mkvmerge v8.2.0 ('World of Adventure') 64bit
_STATISTICS_WRITING_DATE_UTC   : 2015-09-03 08:59:36
_STATISTICS_TAGS               : BPS DURATION NUMBER_OF_FRAMES NUMBER_OF_BYTES

Video
ID                             : 1
Format                         : AVC
Format/Info                    : Advanced Video Codec
Format profile                 : High@L4.1
Format settings, CABAC         : Yes
Format settings, ReFrames      : 9 frames
Codec ID                       : V_MPEG4/ISO/AVC
Duration                       : 1h 33mn
Bit rate                       : 4 695 Kbps
Width                          : 1 280 pixels
Height                         : 720 pixels
Display aspect ratio           : 16:9
Frame rate mode                : Constant
Frame rate                     : 24.000 fps
Color space                    : YUV
Chroma subsampling             : 4:2:0
Bit depth                      : 8 bits
Scan type                      : Progressive
Bits/(Pixel*Frame)             : 0.212
Stream size                    : 3.05 GiB (66%)
Writing library                : x264 core 146 r2538 121396c
Encoding settings              : cabac=1 / ref=9 / deblock=1:-2:-2 / analyse=0x3:0x113 / me=umh / subme=10 / psy=1 / psy_rd=1.00:0.15 / mixed_ref=1 / me_range=32 / chroma_me=1 / trellis=2 / 8x8dct=1 / cqm=0 / deadzone=21,11 / fast_pskip=1 / chroma_qp_offset=-3 / threads=6 / lookahead_threads=1 / sliced_threads=0 / nr=0 / decimate=1 / interlaced=0 / bluray_compat=0 / constrained_intra=0 / bframes=8 / b_pyramid=2 / b_adapt=2 / b_bias=0 / direct=1 / weightb=1 / open_gop=0 / weightp=2 / keyint=230 / keyint_min=23 / scenecut=40 / intra_refresh=0 / rc_lookahead=40 / rc=crf / mbtree=0 / crf=20.9 / qcomp=0.60 / qpmin=0 / qpmax=69 / qpstep=4 / vbv_maxrate=40000 / vbv_bufsize=50000 / crf_max=0.0 / nal_hrd=none / filler=0 / ip_ratio=1.40 / pb_ratio=1.30 / aq=1:1.00
Language                       : Chinese
Default                        : Yes
Forced                         : No
DURATION                       : 01:33:00.750000000
NUMBER_OF_FRAMES               : 133938
NUMBER_OF_BYTES                : 3371204401
_STATISTICS_WRITING_APP        : mkvmerge v8.2.0 ('World of Adventure') 64bit
_STATISTICS_WRITING_DATE_UTC   : 2015-09-03 08:59:36
_STATISTICS_TAGS               : BPS DURATION NUMBER_OF_FRAMES NUMBER_OF_BYTES

Audio #1
ID                             : 2
Format                         : AC-3
Format/Info                    : Audio Coding 3
Mode extension                 : CM (complete main)
Format settings, Endianness    : Big
Codec ID                       : A_AC3
Duration                       : 1h 33mn
Bit rate mode                  : Constant
Bit rate                       : 448 Kbps
Channel(s)                     : 6 channels
Channel positions              : Front: L C R, Side: L R, LFE
Sampling rate                  : 48.0 KHz
Bit depth                      : 16 bits
Compression mode               : Lossy
Stream size                    : 298 MiB (6%)
Title                          : MVO (Total DVD)
Language                       : Russian
Default                        : Yes
Forced                         : No

Audio #2
ID                             : 3
Format                         : AC-3
Format/Info                    : Audio Coding 3
Mode extension                 : CM (complete main)
Format settings, Endianness    : Big
Codec ID                       : A_AC3
Duration                       : 1h 33mn
Bit rate mode                  : Constant
Bit rate                       : 448 Kbps
Channel(s)                     : 6 channels
Channel positions              : Front: L C R, Side: L R, LFE
Sampling rate                  : 48.0 KHz
Bit depth                      : 16 bits
Compression mode               : Lossy
Stream size                    : 298 MiB (6%)
Title                          : MVO (Top Industry)
Language                       : Russian
Default                        : No
Forced                         : No

Audio #3
ID                             : 4
Format                         : AC-3
Format/Info                    : Audio Coding 3
Mode extension                 : CM (complete main)
Format settings, Endianness    : Big
Codec ID                       : A_AC3
Duration                       : 1h 33mn
Bit rate mode                  : Constant
Bit rate                       : 448 Kbps
Channel(s)                     : 6 channels
Channel positions              : Front: L C R, Side: L R, LFE
Sampling rate                  : 48.0 KHz
Bit depth                      : 16 bits
Compression mode               : Lossy
Stream size                    : 298 MiB (6%)
Title                          : DVO (Пётр Гланц и Инна Королёва)
Language                       : Russian
Default                        : No
Forced                         : No

Audio #4
ID                             : 5
Format                         : AC-3
Format/Info                    : Audio Coding 3
Mode extension                 : CM (complete main)
Format settings, Endianness    : Big
Codec ID                       : A_AC3
Duration                       : 1h 33mn
Bit rate mode                  : Constant
Bit rate                       : 448 Kbps
Channel(s)                     : 6 channels
Channel positions              : Front: L C R, Side: L R, LFE
Sampling rate                  : 48.0 KHz
Bit depth                      : 16 bits
Compression mode               : Lossy
Stream size                    : 298 MiB (6%)
Title                          : AVO (Юрий Сербин)
Language                       : Russian
Default                        : No
Forced                         : No

Audio #5
ID                             : 6
Format                         : AC-3
Format/Info                    : Audio Coding 3
Mode extension                 : CM (complete main)
Format settings, Endianness    : Big
Codec ID                       : A_AC3
Duration                       : 1h 33mn
Bit rate mode                  : Constant
Bit rate                       : 448 Kbps
Channel(s)                     : 6 channels
Channel positions              : Front: L C R, Side: L R, LFE
Sampling rate                  : 48.0 KHz
Bit depth                      : 16 bits
Compression mode               : Lossy
Stream size                    : 298 MiB (6%)
Title                          : Original
Language                       : Chinese
Default                        : No
Forced                         : No
Скриншоты:


Смотреть Online

http://moonwalk.cc/video/93f9af900a70624f/iframe
Детали торрента:
Название:S.P.L. Звезды судьбы / Saat po long (2005) BDRip [H.264/720p]
Дата добавления:10 Сен 2015 07:08:15
Размер:4,6 GB
Раздают:3
Качают:0
Форум:Азиатское кино (HD)

All rights reserved © 2015-2018