TORRENTS43.XYZ

Скачать Пила: Игра на выживание / Saw (2004) BDRip [H.264] [Director's Cut]


Пила: Игра на выживание / Saw (2004) BDRip [H.264]
« Сколько крови ты прольешь для неё? »

Производство: США, Австралия | Twisted Pictures, Evolution Entertainment, Saw Productions
Жанр: Ужасы, Детектив

Режиссер: Джеймс Ван
Актеры: Тобин Белл, Ли Уоннелл, Кэри Элвис, Дэнни Гловер, Моника Поттер, Дина Мейер, Кен Люн, Майкл Эмерсон, Шоуни Смит, Бенито Мартинес, Майк Баттерс, Пол Гутрехт, Макензи Вега, Нед Беллами, Эвнер Гарби, Орен Каулз, Александра Бокун Чун

Описание: Двое незнакомцев просыпаются в странном подвальном помещении. В центре помещения - труп мужчины с простреленной головой и оружием в ослабевшей руке. Они же прикованы к стенам цепями за щиколотки. Оба не знают, как там оказались. Путём нехитрых предположений и спрятанных вокруг них ответов, как частей какого-то паззла, они узнают, по крайней мере, зачем они здесь и что именно от них ждёт их Похититель. Голос с найденной плёнки бесстрастно вещает: «Если ты хочешь спасти свою жену и детей, убей другого». Убить другого можно, только дотянувшись до оружия. Дотянуться до оружия нельзя иначе, как избавившись от цепи. Избавиться от цепи нельзя иначе, кроме как отпилив ногу. Времени - мало. Но достаточно, чтобы реконструировать цепочку странных событий, которые привели каждого из них туда, где они сейчас оказались…


Возраст: 18+ (зрителям, достигшим 18 лет. запрещено для детей)
Рейтинг MPAA: NC-17 (лицам до 17 лет просмотр запрещен)

Продолжительность: 01:42:46
Качество видео: BDRip
Перевод: Дублированный, многоголосый закадровый, двухголосый закадровый, авторский, любительский
Вид субтитров: Вшитые отключаемые
Язык субтитров: Русский, Английский

Видео: MPEG-4 AVC/H.264, 2500 Kbps, 1024x576
Аудио 1: Русский AC3 5.1, 448 Kbps, 48.0 KHz (Дублированный) Blu-ray
Аудио 2: Русский AC3 5.1, 448 Kbps, 48.0 KHz (Многоголосый закадровый) R5
Аудио 3: Русский AC3 5.1, 448 Kbps, 48.0 KHz (Двухголосый закадровый) Tycoon
Аудио 4: Русский AC3 5.1, 224 Kbps, 48.0 KHz (Одноголосый закадровый) Е. Гранкин
Аудио 5: Русский AC3 5.1, 448 Kbps, 48.0 KHz (Одноголосый закадровый) А. Гаврилов
Аудио 6: Русский AC3 5.1, 448 Kbps, 48.0 KHz (Одноголосый закадровый) А. Дольский
Аудио 7: Русский AC3 5.1, 448 Kbps, 48.0 KHz (Одноголосый закадровый) В. Королёв
Аудио 8: Русский AC3 5.1, 448 Kbps, 48.0 KHz (Одноголосый закадровый) Madrid
Аудио 9: Английский AC3 5.1, 448 Kbps, 48.0 KHz (Оригинал)

MediaInfo

Код: выделить все

Общее
Полное имя                               : Пила 1.mkv
Формат                                   : Matroska
Версия формата                           : Version 1
Размер файла                             : 4,53 Гбайт
Продолжительность                        : 1 ч. 42 м.
Общий поток                              : 6312 Кбит/сек
Дата кодирования                         : UTC 2015-08-30 10:15:57
Программа кодирования                    : mkvmerge v2.4.1 ('Use Me') built on Dec  5 2008 18:30:05
Библиотека кодирования                   : libebml v0.7.7 + libmatroska v0.8.1

Видео
Идентификатор                            : 1
Формат                                   : AVC
Формат/Информация                        : Advanced Video Codec
Профиль формата                          : High@L4.1
Параметр CABAC формата                   : Да
Параметр ReFrames формата                : 10 кадров
Идентификатор кодека                     : V_MPEG4/ISO/AVC
Продолжительность                        : 1 ч. 42 м.
Битрейт                                  : 2378 Кбит/сек
Номинальный битрейт                      : 2500 Кбит/сек
Ширина                                   : 1024 пикселя
Высота                                   : 576 пикселей
Соотношение сторон                       : 16:9
Режим частоты кадров                     : Постоянный
Частота кадров                           : 23,976 кадра/сек
Цветовое пространство                    : YUV
Субдискретизация насыщенности            : 4:2:0
Битовая глубина                          : 8 бит
Тип развёртки                            : Прогрессивная
Бит/(Пиксели*Кадры)                      : 0.168
Размер потока                            : 1,71 Гбайт (38%)
Заголовок                                : Пила (2004)
Библиотека кодирования                   : x264 core 146 r2538 121396c
Настройки программы                      : cabac=1 / ref=10 / deblock=1:-3:-3 / analyse=0x3:0x133 / me=umh / subme=10 / psy=1 / psy_rd=1.00:0.10 / mixed_ref=1 / me_range=48 / chroma_me=1 / trellis=2 / 8x8dct=1 / cqm=0 / deadzone=21,11 / fast_pskip=0 / chroma_qp_offset=-3 / threads=6 / lookahead_threads=1 / sliced_threads=0 / nr=0 / decimate=1 / interlaced=0 / bluray_compat=0 / constrained_intra=0 / bframes=5 / b_pyramid=2 / b_adapt=2 / b_bias=0 / direct=3 / weightb=1 / open_gop=0 / weightp=2 / keyint=240 / keyint_min=22 / scenecut=40 / intra_refresh=0 / rc_lookahead=40 / rc=2pass / mbtree=1 / bitrate=2500 / ratetol=1.0 / qcomp=0.60 / qpmin=10 / qpmax=51 / qpstep=4 / cplxblur=20.0 / qblur=0.5 / ip_ratio=1.40 / aq=1:1.00
Язык                                     : English
Default                                  : Да
Forced                                   : Нет

Аудио #1
Идентификатор                            : 2
Формат                                   : AC-3
Формат/Информация                        : Audio Coding 3
Расширение режима                        : CM (complete main)
Параметр Endianness формата              : Big
Идентификатор кодека                     : A_AC3
Продолжительность                        : 1 ч. 42 м.
Вид битрейта                             : Постоянный
Битрейт                                  : 448 Кбит/сек
Каналы                                   : 6 каналов
Расположение каналов                     : Front: L C R, Side: L R, LFE
Частота                                  : 48,0 КГц
Битовая глубина                          : 16 бит
Метод сжатия                             : С потерями
Размер потока                            : 329 Мбайт (7%)
Заголовок                                : AC3 (Дублированный) Blu-ray
Язык                                     : Russian
Default                                  : Да
Forced                                   : Нет

Аудио #2
Идентификатор                            : 3
Формат                                   : AC-3
Формат/Информация                        : Audio Coding 3
Расширение режима                        : CM (complete main)
Параметр Endianness формата              : Big
Идентификатор кодека                     : A_AC3
Продолжительность                        : 1 ч. 42 м.
Вид битрейта                             : Постоянный
Битрейт                                  : 448 Кбит/сек
Каналы                                   : 6 каналов
Расположение каналов                     : Front: L C R, Side: L R, LFE
Частота                                  : 48,0 КГц
Битовая глубина                          : 16 бит
Метод сжатия                             : С потерями
Размер потока                            : 329 Мбайт (7%)
Заголовок                                : AC3 (Многоголосый) R5
Язык                                     : Russian
Default                                  : Нет
Forced                                   : Нет

Аудио #3
Идентификатор                            : 4
Формат                                   : AC-3
Формат/Информация                        : Audio Coding 3
Расширение режима                        : CM (complete main)
Параметр Endianness формата              : Big
Идентификатор кодека                     : A_AC3
Продолжительность                        : 1 ч. 42 м.
Вид битрейта                             : Постоянный
Битрейт                                  : 448 Кбит/сек
Каналы                                   : 6 каналов
Расположение каналов                     : Front: L C R, Side: L R, LFE
Частота                                  : 48,0 КГц
Битовая глубина                          : 16 бит
Метод сжатия                             : С потерями
Размер потока                            : 329 Мбайт (7%)
Заголовок                                : AC3 (Двухголосый) Tycoon
Язык                                     : Russian
Default                                  : Нет
Forced                                   : Нет

Аудио #4
Идентификатор                            : 5
Формат                                   : AC-3
Формат/Информация                        : Audio Coding 3
Расширение режима                        : CM (complete main)
Параметр Endianness формата              : Big
Идентификатор кодека                     : A_AC3
Продолжительность                        : 1 ч. 42 м.
Вид битрейта                             : Постоянный
Битрейт                                  : 224 Кбит/сек
Каналы                                   : 6 каналов
Расположение каналов                     : Front: L C R, Side: L R, LFE
Частота                                  : 48,0 КГц
Битовая глубина                          : 16 бит
Метод сжатия                             : С потерями
Размер потока                            : 165 Мбайт (4%)
Заголовок                                : AC3 (Одноголосый) Е. Гранкин
Язык                                     : Russian
Default                                  : Нет
Forced                                   : Нет

Аудио #5
Идентификатор                            : 6
Формат                                   : AC-3
Формат/Информация                        : Audio Coding 3
Расширение режима                        : CM (complete main)
Параметр Endianness формата              : Big
Идентификатор кодека                     : A_AC3
Продолжительность                        : 1 ч. 42 м.
Вид битрейта                             : Постоянный
Битрейт                                  : 448 Кбит/сек
Каналы                                   : 6 каналов
Расположение каналов                     : Front: L C R, Side: L R, LFE
Частота                                  : 48,0 КГц
Битовая глубина                          : 16 бит
Метод сжатия                             : С потерями
Размер потока                            : 329 Мбайт (7%)
Заголовок                                : AC3 (Одноголосый) А. Гаврилов
Язык                                     : Russian
Default                                  : Нет
Forced                                   : Нет

Аудио #6
Идентификатор                            : 7
Формат                                   : AC-3
Формат/Информация                        : Audio Coding 3
Расширение режима                        : CM (complete main)
Параметр Endianness формата              : Big
Идентификатор кодека                     : A_AC3
Продолжительность                        : 1 ч. 42 м.
Вид битрейта                             : Постоянный
Битрейт                                  : 448 Кбит/сек
Каналы                                   : 6 каналов
Расположение каналов                     : Front: L C R, Side: L R, LFE
Частота                                  : 48,0 КГц
Битовая глубина                          : 16 бит
Метод сжатия                             : С потерями
Размер потока                            : 329 Мбайт (7%)
Заголовок                                : AC3 (Одноголосый) А. Дольский
Язык                                     : Russian
Default                                  : Нет
Forced                                   : Нет

Аудио #7
Идентификатор                            : 8
Формат                                   : AC-3
Формат/Информация                        : Audio Coding 3
Расширение режима                        : CM (complete main)
Параметр Endianness формата              : Big
Идентификатор кодека                     : A_AC3
Продолжительность                        : 1 ч. 42 м.
Вид битрейта                             : Постоянный
Битрейт                                  : 448 Кбит/сек
Каналы                                   : 6 каналов
Расположение каналов                     : Front: L C R, Side: L R, LFE
Частота                                  : 48,0 КГц
Битовая глубина                          : 16 бит
Метод сжатия                             : С потерями
Размер потока                            : 329 Мбайт (7%)
Заголовок                                : AC3 (Одноголосый) В. Королёв
Язык                                     : Russian
Default                                  : Нет
Forced                                   : Нет

Аудио #8
Идентификатор                            : 9
Формат                                   : AC-3
Формат/Информация                        : Audio Coding 3
Расширение режима                        : CM (complete main)
Параметр Endianness формата              : Big
Идентификатор кодека                     : A_AC3
Продолжительность                        : 1 ч. 42 м.
Вид битрейта                             : Постоянный
Битрейт                                  : 448 Кбит/сек
Каналы                                   : 6 каналов
Расположение каналов                     : Front: L C R, Side: L R, LFE
Частота                                  : 48,0 КГц
Битовая глубина                          : 16 бит
Метод сжатия                             : С потерями
Размер потока                            : 329 Мбайт (7%)
Заголовок                                : AC3 (Одноголосый) Madrid
Язык                                     : Russian
Default                                  : Нет
Forced                                   : Нет

Аудио #9
Идентификатор                            : 10
Формат                                   : AC-3
Формат/Информация                        : Audio Coding 3
Расширение режима                        : CM (complete main)
Параметр Endianness формата              : Big
Идентификатор кодека                     : A_AC3
Продолжительность                        : 1 ч. 42 м.
Вид битрейта                             : Постоянный
Битрейт                                  : 448 Кбит/сек
Каналы                                   : 6 каналов
Расположение каналов                     : Front: L C R, Side: L R, LFE
Частота                                  : 48,0 КГц
Битовая глубина                          : 16 бит
Метод сжатия                             : С потерями
Размер потока                            : 329 Мбайт (7%)
Заголовок                                : AC3 (Оригинал)
Язык                                     : English
Default                                  : Нет
Forced                                   : Нет

Текст #1
Идентификатор                            : 11
Формат                                   : UTF-8
Идентификатор кодека                     : S_TEXT/UTF8
Идентификатор кодека/Информация          : UTF-8 Plain Text
Заголовок                                : Русские
Язык                                     : Russian
Default                                  : Нет
Forced                                   : Нет

Текст #2
Идентификатор                            : 12
Формат                                   : UTF-8
Идентификатор кодека                     : S_TEXT/UTF8
Идентификатор кодека/Информация          : UTF-8 Plain Text
Заголовок                                : Английские
Язык                                     : English
Default                                  : Нет
Forced                                   : Нет
Скриншоты:

Все релизы "Пила: Игра на выживание / Saw" на Torrents43.xyz

Смотреть Online

http://moonwalk.cc/video/2f98e209fbb6a5f5/iframe
Детали торрента:
Название:Пила: Игра на выживание / Saw (2004) BDRip [H.264] [Director's Cut]
Дата добавления:31 Авг 2015 06:58:43
Размер:4,53 GB
Раздают:5
Качают:0
Форум:Зарубежные Фильмы (HD*Rip/LQ, DVDRip, SATRip, VHSRip)

All rights reserved © 2015-2018