TORRENTS43.XYZ

Скачать Как один лейтенант войну остановил (2008) IPTVRip


Как один лейтенант войну остановил (2008) IPTVRip
Телекомпания: Россия
Жанр: Документальный, авиация, история, война, биография

Описание:
Жаркое лето 1952-го. Корея. На приграничную китайскую территорию прибыла дивизия знаменитого Кожедуба, в количестве пятисот самолетов. Это были первые бои реактивных истребителей с реактивными истребителями. Советские летчики бьются насмерть с американскими истребителями за господство в небе над 38-й параллелью, разделившей полуостров. В анналы истории это место боев войдет как «Аллея МиГов». Здесь идут самые жестокие бои между летчиками за всю послевоенную историю. Еще недавно на один сбитый советский самолет приходилось 8 американских. Но теперь американские истребители расстреливают советские самолеты все чаще и чаще. И причиной тому - новейшее электронное оборудование, установленное на истребителях ВВС США.
Только чудо может помочь нашим летчикам. И это чудо ждут от прибора размером с пачку папирос, доставленного в срочном порядке в Корею по личному распоряжению Сталина.
Прибор доставляет человек, переодетый в китайскую форму. Представляется советским лейтенантом Вадимом Мацкевичем. Он лично оснащает десять самолетов МиГ-15 секретным устройством, и начинаются испытания. Выполняя задание Сталина, в бой идут одни старики – Герои Советского Союза, лучшие летчики, громившие еще недавно люфтваффе. В Москву докладывают об успешном испытании и просят оснастить этим прибором все боевые истребители. Сталин отдает приказ сделать 500 приборов. Заместитель министра обороны адмирал Аксель Берг лично курирует выполнение задания. К осени на всех наших МиГах стоит таинственная коробочка, позволяющая советским асам выигрывать воздушные бои.
Мацкевич повышен через одно звание в капитаны и награжден орденом Красной Звезды.
Но вдруг, возвращаясь с очередного боевого задания, пилоты все как один клянут секретный прибор. Не работает он! «Сирена», да и только, орет все время! В бою только мешает.
Руководство ВВС в панике - ведь доложили, что работает. Но потери растут. Что это - диверсия или США переиграли нас? И недавно произведенный в капитаны Мацкевич понимает, что его ждут лагеря или расстрел...
Как развивались дальнейшие события? Что помогло нашим летчикам выстоять в Корейской войне? Об этом - в документальном фильме. Впервые стало возможно рассказать о совершенно засекреченном изобретении. Сам создатель уникального прибора принимает участие в фильме. Как и летчики – ветераны войны в Корее.

Продолжительность: 00:44:11
Качество видео: IPTVRip

Видео: DivX 5, 704x400, ~1840 kbps
Аудио: AC3, 2 ch, 192 kbps, CBR

Mediainfo:

Код:

Как.один.лейтенант.войну.остановил.2008.DivX.IPTVRip.alf62.avi
Формат                                   : AVI
Формат/Информация                        : Audio Video Interleave
Размер файла                             : 645 Мбайт
Продолжительность                        : 44 м.
Общий поток                              : 2042 Кбит/сек
Библиотека кодирования                   : Boilsoft Joiner build 2411/release

Видео
Идентификатор                            : 0
Формат                                   : MPEG-4 Visual
Профиль формата                          : Advanced Simple@L5
Параметр BVOP формата                    : 2
Параметр QPel формата                    : Нет
Параметр GMC формата                     : Без точки перехода
Параметр матрицы формата                 : Default (H.263)
Идентификатор кодека                     : DX50
Идентификатор кодека/Подсказка           : DivX 5
Продолжительность                        : 44 м.
Битрейт                                  : 1840 Кбит/сек
Ширина                                   : 704 пикселя
Высота                                   : 400 пикселей
Соотношение сторон                       : 16:9
Частота кадров                           : 25,000 кадров/сек
Цветовое пространство                    : YUV
Субдискретизация насыщенности            : 4:2:0
Битовая глубина                          : 8 бит
Тип развёртки                            : Прогрессивная
Метод сжатия                             : С потерями
Бит/(Пиксели*Кадры)                      : 0.261
Размер потока                            : 582 Мбайт (90%)
Библиотека кодирования                   : XviD 73

Аудио
Идентификатор                            : 1
Формат                                   : AC-3
Формат/Информация                        : Audio Coding 3
Расширение режима                        : CM (complete main)
Параметр Endianness формата              : Big
Идентификатор кодека                     : 2000
Продолжительность                        : 44 м.
Вид битрейта                             : Постоянный
Битрейт                                  : 192 Кбит/сек
Каналы                                   : 2 канала
Расположение каналов                     : Front: L R
Частота                                  : 48,0 КГц
Битовая глубина                          : 16 бит
Метод сжатия                             : С потерями
Размер потока                            : 60,7 Мбайт (9%)
Выравнивание                             : Разделение по промежуткам
Продолжительность промежутка             : 40  мс. (1,00 видеокадр)
Время предзагрузки промежутка            : 500  мс.

Дополнительная информация:

Авторство релиза - alf62
Скриншоты:

Дополнительные скриншоты:







Детали торрента:
Название:Как один лейтенант войну остановил (2008) IPTVRip
Дата добавления:26 Июл 2015 20:23:31
Размер:645 MB
Раздают:
Качают:0
Форум:Авиация

All rights reserved © 2015-2018