TORRENTS43.XYZ

Скачать Эверест. Достигая невозможного / Beyond the Edge (2013) BDRip [H.264/720p]


Эверест. Достигая невозможного / Beyond the Edge (2013) BDRip [720p]

«За гранью человеческих способностей! За гранью воображения»

Производство: Новая Зеландия
Режиссёр: Лиэнн Пули
Жанр: документальный, драма, приключения, история
В ролях: Чад Моффитт, Сонам Шерпа, Джон Рэйт, Джошуа Раттер, Дэниэл Масгроув, Эролл Шанд

Описание:
Эпическое повествование о первом триумфальном восхождении на вершину Эвереста, предпринятом скромным пчеловодом из новозеландского Окланда Эдмундом Хиллари и его проводником Тенцингом Норгеем. История обыкновенного человека, который сражался с собственными «демонами сомнения», а в результате покорил самую высокую вершину мира.



Продолжительность: 01:30:12
Качество видео: BDRip

Перевод: Многоголосый закадровый, профессиональный

Видео: MPEG-4 AVC/H.264, ~7142 kbps, 1280x694
Аудио 1: 48 kHz, AC3, 6 ch, ~640.00 kbps - Многоголосый закадровый, Позитив по заказу РР
Аудио 2: 48 kHz, AC3, 6 ch, ~640.00 kbps - original

Отчёт MediaInfo:

Код:

Общее
Уникальный идентификатор                 : 228832978932951894005864262892395315025 (0xAC27A0EE7CCD399496737D2D747A3F51)
Полное имя                               : F:\razd\Beyond.the.Edge.2013.P.BDRip.720p.mkv
Формат                                   : Matroska
Версия формата                           : Version 4 / Version 2
Размер файла                             : 5,31 Гбайт
Продолжительность                        : 1 ч. 30 м.
Общий поток                              : 8424 Кбит/сек
Дата кодирования                         : UTC 2015-03-09 09:00:04
Программа кодирования                    : mkvmerge v7.7.0 ('Six Voices') 64bit built on Feb 28 2015 23:39:33
Библиотека кодирования                   : libebml v1.3.1 + libmatroska v1.4.2
_STATISTICS_WRITING_APP                  : mkvmerge v7.7.0 ('Six Voices') 64bit built on Feb 28 2015 23:39:33
_STATISTICS_WRITING_DATE_UTC             : 2015-03-09 09:00:04
_STATISTICS_TAGS                         : BPS DURATION NUMBER_OF_FRAMES NUMBER_OF_BYTES
DURATION                                 : 01:30:12.384000000
NUMBER_OF_FRAMES                         : 169137
NUMBER_OF_BYTES                          : 432990720

Видео
Идентификатор                            : 1
Формат                                   : AVC
Формат/Информация                        : Advanced Video Codec
Профиль формата                          : High@L4.1
Параметр CABAC формата                   : Да
Параметр ReFrames формата                : 9 кадров
Идентификатор кодека                     : V_MPEG4/ISO/AVC
Продолжительность                        : 1 ч. 30 м.
Битрейт                                  : 6976 Кбит/сек
Ширина                                   : 1280 пикселей
Высота                                   : 694 пикселя
Соотношение сторон                       : 1,85:1
Режим частоты кадров                     : Постоянный
Частота кадров                           : 23,976 кадра/сек
Цветовое пространство                    : YUV
Субдискретизация насыщенности            : 4:2:0
Битовая глубина                          : 8 бит
Тип развёртки                            : Прогрессивная
Бит/(Пиксели*Кадры)                      : 0.328
Размер потока                            : 4,40 Гбайт (83%)
Заголовок                                : Beyond the Edge 2013
Библиотека кодирования                   : x264 core 144 r2525kMod 40bb568
Настройки программы                      : cabac=1 / ref=9 / deblock=1:-3:-3 / analyse=0x3:0x133 / me=umh / subme=11 / psy=1 / fade_compensate=0.00 / psy_rd=1.00:0.00 / mixed_ref=1 / me_range=32 / chroma_me=1 / trellis=2 / 8x8dct=1 / cqm=0 / deadzone=21,11 / fast_pskip=1 / chroma_qp_offset=-2 / threads=12 / lookahead_threads=3 / sliced_threads=0 / nr=0 / decimate=1 / interlaced=0 / bluray_compat=0 / constrained_intra=0 / fgo=0 / bframes=10 / b_pyramid=2 / b_adapt=2 / b_bias=0 / direct=3 / weightb=1 / open_gop=0 / weightp=2 / keyint=250 / keyint_min=23 / scenecut=40 / intra_refresh=0 / rc=crf / mbtree=0 / crf=15.0000 / qcomp=0.65 / qpmin=0 / qpmax=69 / qpstep=4 / ip_ratio=1.25 / pb_ratio=1.20 / aq=1:0.60
Язык                                     : English
Default                                  : Да
Forced                                   : Нет
_STATISTICS_WRITING_APP                  : mkvmerge v7.7.0 ('Six Voices') 64bit built on Feb 28 2015 23:39:33
_STATISTICS_WRITING_DATE_UTC             : 2015-03-09 09:00:04
_STATISTICS_TAGS                         : BPS DURATION NUMBER_OF_FRAMES NUMBER_OF_BYTES
DURATION                                 : 01:30:12.783000000
NUMBER_OF_FRAMES                         : 129777
NUMBER_OF_BYTES                          : 4832171048

Аудио #1
Идентификатор                            : 2
Формат                                   : AC-3
Формат/Информация                        : Audio Coding 3
Расширение режима                        : CM (complete main)
Параметр Endianness формата              : Big
Идентификатор кодека                     : A_AC3
Продолжительность                        : 1 ч. 30 м.
Вид битрейта                             : Постоянный
Битрейт                                  : 640 Кбит/сек
Каналы                                   : 6 каналов
Расположение каналов                     : Front: L C R, Side: L R, LFE
Частота                                  : 48,0 КГц
Битовая глубина                          : 16 бит
Метод сжатия                             : С потерями
Размер потока                            : 413 Мбайт (8%)
Заголовок                                : AC3 5.1 @ 640 kbps - Позитив по заказу РР
Язык                                     : Russian
Default                                  : Да
Forced                                   : Нет

Аудио #2
Идентификатор                            : 3
Формат                                   : AC-3
Формат/Информация                        : Audio Coding 3
Расширение режима                        : CM (complete main)
Параметр Endianness формата              : Big
Идентификатор кодека                     : A_AC3
Продолжительность                        : 1 ч. 30 м.
Вид битрейта                             : Постоянный
Битрейт                                  : 640 Кбит/сек
Каналы                                   : 6 каналов
Расположение каналов                     : Front: L C R, Side: L R, LFE
Частота                                  : 48,0 КГц
Битовая глубина                          : 16 бит
Метод сжатия                             : С потерями
Размер потока                            : 413 Мбайт (8%)
Заголовок                                : AC3 5.1 @ 640 kbps
Язык                                     : English
Default                                  : Нет
Forced                                   : Нет

Меню
00:00:00.000                             : en:00:00:00.000
00:06:42.527                             : en:00:06:42.527
00:14:49.097                             : en:00:14:49.097
00:23:11.140                             : en:00:23:11.140
00:30:41.590                             : en:00:30:41.590
00:36:31.189                             : en:00:36:31.189
00:44:10.857                             : en:00:44:10.857
00:58:23.417                             : en:00:58:23.417
01:05:20.125                             : en:01:05:20.125
01:10:58.671                             : en:01:10:58.671
01:19:35.521                             : en:01:19:35.521
01:24:08.752                             : en:01:24:08.752
Скриншоты:


Смотреть Online

http://moonwalk.cc/video/6dd5aaffcf32735b/iframe
Детали торрента:
Название:Эверест. Достигая невозможного / Beyond the Edge (2013) BDRip [H.264/720p]
Дата добавления:12 Мар 2015 07:22:13
Размер:5,31 GB
Раздают:1
Качают:0
Форум:Экстрим

All rights reserved © 2015-2018