TORRENTS43.XYZ

Скачать Братья по обмену (2014) SATRip (сезон 2, серии 01-12 из 12)


Братья по обмену (2014)
Русское название: Братья по обмену
Производство: Россия
Год выпуска: 2014
Жанр: комедия

Режиссер: Александр Жигалкин
Актеры: Фёдор Добронравов, Мария Аронова, Михаил Васьков, Михаил Хмуров, Дмитрий Мухамадеев, Дмитрий Блохин, Дарья Фекленко, Светлана Малюкова, Алина Кизиярова, Ольга Хохлова, Дмитрий Архангельский, Андрей Анкудинов, Валерия Бурдужа, Александр Нестеров, Олег Кассин, Константин Третьяков, Елена Шевченко

Описание фильма:
Невероятные приключения, произошедшие с Федором и Валерием Перечихиными, конечно же, изменили их жизнь. Но, как это часто бывает, не настолько существенно, как казалось вначале. В характере Валерия снова начали проглядывать черты прежнего малосимпатичного дельца, готового пойти на сделку с совестью ради своих бизнес-целей. Бизнесмен Валерий теперь живет в Москве вместе со своей женой Тамарой и, как и прежде, возглавляет в компанию "Вектор". А Федор, распрощавшись с тюремной жизнью, наслаждается сельским бытом с женой Мариной в Мокрухино и вынашивает идею строительства санатория на местном целебном источнике....



Продолжительность: ~00:45:00 серия
Качество видео: SATRip

Видеокодек: XviD
Битрейт видео: ~1800 Кбит/сек
Размер кадра: 720x400 (16:9)
Аудиокодек: AC-3
Битрейт аудио: 192 Кбит/с, 2 ch

MediaInfo:

Общее
Полное имя : D:\сереалы\Братья по обмену-2 SATRip\Bratya.Po.Obmenu-2.01.avi
Формат : AVI
Формат/Информация : Audio Video Interleave
Размер файла : 631 Мбайт
Продолжительность : 44 м.
Общий поток : 2002 Кбит/сек
Программа кодирования : VirtualDubMod 1.5.10.3 | www.virtualdub-fr.org || (build 2550/release)
Библиотека кодирования : VirtualDubMod build 2550/release

Видео
Идентификатор : 0
Формат : MPEG-4 Visual
Профиль формата : Advanced Simple@L5
Параметр BVOP формата : 2
Параметр QPel формата : Нет
Параметр GMC формата : Без точки перехода
Параметр матрицы формата : Default (H.263)
Идентификатор кодека : XVID
Идентификатор кодека/Подсказка : XviD
Продолжительность : 44 м.
Битрейт : 1800 Кбит/сек
Ширина : 720 пикселей
Высота : 400 пикселей
Соотношение сторон : 16:9
Частота кадров : 25,000 кадров/сек
Цветовое пространство : YUV
Субдискретизация насыщенности : 4:2:0
Битовая глубина : 8 бит
Тип развёртки : Прогрессивная
Метод сжатия : С потерями
Бит/(Пиксели*Кадры) : 0.250
Размер потока : 567 Мбайт (90%)
Библиотека кодирования : XviD 1.2.1 (UTC 2008-12-04)

Аудио
Идентификатор : 1
Формат : AC-3
Формат/Информация : Audio Coding 3
Расширение режима : CM (complete main)
Параметр Endianness формата : Big
Идентификатор кодека : 2000
Продолжительность : 44 м.
Вид битрейта : Постоянный
Битрейт : 192 Кбит/сек
Каналы : 2 канала
Расположение каналов : Front: L R
Частота : 48,0 КГц
Битовая глубина : 16 бит
Метод сжатия : С потерями
Размер потока : 60,5 Мбайт (10%)
Выравнивание : Разделение по промежуткам
Продолжительность промежутка : 40 мс. (1,00 видеокадр)
Время предзагрузки промежутка : 500 мс.

Внимание! Раздача ведётся путём добавления новых серий

Внимание! Раздача ведётся путём добавления новых серий; при каждом добавлении создаётся новый торрент.
Чтобы начать докачку новой серии, пользователям необходимо сделать следующее:
1. Остановить скачивание;
2. Удалить старый торрент у себя из клиента (старые серии удалять не надо);
3. Скачать новый торрент и запустить его у себя в клиенте вместо старого, при этом указать клиенту путь в старую папку куда и должно происходить скачивание новых серий. Ваш клиент при этом должен произвести хеширование (проверку) старой папки и будет докачивать только те серии, которых у вас ещё нет. Старые серии при этом не удаляются, а продолжают раздаваться! Eсли вы уже удалили старые серии, то предотвратить повторную закачку старых серий можно, отжав галочку в соответствующих местах при запуске нового торрента.
Скриншоты:



Все раздачи «Братья по обмену» на Torrents43.xyz

Смотреть Online

http://moonwalk.cc/serial/a33f99ea4d218ce0a62174841b18623d/iframe
Детали торрента:
Название:Братья по обмену (2014) SATRip (сезон 2, серии 01-12 из 12)
Дата добавления:26 Дек 2014 03:05:40
Размер:7,23 GB
Раздают:2
Качают:0
Форум:Отечественные сериалы

All rights reserved © 2015-2018