TORRENTS43.XYZ

Скачать Ходячие мертвецы / The Walking Dead (2014-2015) WEB-DL [H.264/1080p-LQ] (сезон 5, серии 1-16 из 16) (Fox)


Ходячие мертвецы / The Walking Dead (2014-2015) WEBDL 1080p
Производство: США
Жанр: ужасы, мистика, триллер

Перевод: Многоголосый закадровый, профессиональный - Fox

Режиссер: Фрэнк Дарабонт, Эрнест Р. Дикерсон, Гай Ферленд
Актеры: Джон Бернтал, Джеффри ДеМун, Эндрю Линкольн, Адам Минарович, Чендлер Риггз, Майкл Рукер, Сара Уэйн Кэллис

Описание фильма: Сериал рассказывает историю жизни семьи шерифа после того, как «зомби» — эпидемия апокалипсических масштабов захлестнула земной шар. Шериф Рик Граймс путешествует со своей семьей и небольшой группой выживших в поисках безопасного места для жизни. Но постоянный страх смерти каждый день приносит тяжелые потери, заставляя героев почувствовать глубины человеческой жестокости. Рик пытается спасти свою семью, и открывает для себя, что всепоглощающий страх тех, кто выжил, может быть опаснее бессмысленных мертвецов, бродящих по земле. Сериал является экранизацией одноименной комикс-серии, которая начала выходить в 2003 году...

СЭМПЛ

Продолжительность: ~00:43:00 серия
Качество видео: WEB-DL 1080p

Видеокодек: MPEG-4/H.264 AVC
Формат: MKV
Битрейт видео: ~4895 Kbps
Размер кадра: 1920x1080 (16:9)
Audio #1 Rus: AC3, 2ch, 192 kb/s - многоголосый закадровый
Audio #2 Eng: AC3, 6ch, 384 kb/s - оригинал

MediaInfo

General
Unique ID : 254105653808664084930570010292897973134 (0xBF2AF8015D4E58FA877F22FFA048038E)
Complete name : The.Walking.Dead.s05e01.WEBDL.1080p.NewStudio.TV.mkv
Format : Matroska
Format version : Version 2
File size : 1.70 GiB
Duration : 43mn 42s
Overall bit rate : 5 582 Kbps
Encoded date : UTC 2014-10-13 18:59:04
Writing application : mkvmerge v2.9.9 ('Tutu') built on Nov 25 2009 21:13:32
Writing library : libebml v0.7.9 + libmatroska v0.8.1

Video
ID : 1
Format : AVC
Format/Info : Advanced Video Codec
Format profile : High@L4.0
Format settings, CABAC : Yes
Format settings, ReFrames : 4 frames
Codec ID : V_MPEG4/ISO/AVC
Duration : 43mn 42s
Bit rate : 4 895 Kbps
Width : 1 920 pixels
Height : 1 080 pixels
Display aspect ratio : 16:9
Frame rate mode : Constant
Frame rate : 23.976 fps
Color space : YUV
Chroma subsampling : 4:2:0
Bit depth : 8 bits
Scan type : Progressive
Bits/(Pixel*Frame) : 0.098
Stream size : 1.49 GiB (88%)
Language : English
Default : No
Forced : No
Color primaries : BT.709
Transfer characteristics : BT.709
Matrix coefficients : BT.709

Audio #1
ID : 2
Format : AC-3
Format/Info : Audio Coding 3
Mode extension : CM (complete main)
Format settings, Endianness : Big
Codec ID : A_AC3
Duration : 43mn 42s
Bit rate mode : Constant
Bit rate : 192 Kbps
Channel(s) : 2 channels
Channel positions : Front: L R
Sampling rate : 48.0 KHz
Bit depth : 16 bits
Compression mode : Lossy
Stream size : 60.0 MiB (3%)
Language : Russian
Default : Yes
Forced : Yes

Audio #2
ID : 3
Format : AC-3
Format/Info : Audio Coding 3
Mode extension : CM (complete main)
Format settings, Endianness : Big
Codec ID : A_AC3
Duration : 43mn 42s
Bit rate mode : Constant
Bit rate : 384 Kbps
Channel(s) : 6 channels
Channel positions : Front: L C R, Side: L R, LFE
Sampling rate : 48.0 KHz
Bit depth : 16 bits
Compression mode : Lossy
Stream size : 120 MiB (7%)
Language : English
Default : No
Forced : No
Скриншоты:



Все раздачи сериала "Ходячие мертвецы / The Walking Dead

Смотреть Online

http://moonwalk.cc/video/33b1343ed8e3cd4b/iframe
Детали торрента:
Название:Ходячие мертвецы / The Walking Dead (2014-2015) WEB-DL [H.264/1080p-LQ] (сезон 5, серии 1-16 из 16) (Fox)
Дата добавления:31 Мар 2015 00:01:24
Размер:28,2 GB
Раздают:3
Качают:0
Форум:Ходячие мертвецы / The Walking Dead ; Бойтесь ходячих мертвецов / Fear the Walking Dead

All rights reserved © 2015-2018