TORRENTS43.XYZ

Скачать Пленница. Побег / Flukt (2012) HDRip


Пленница. Побег / Flukt (2012) HDRip
Год выпуска: 2012
Жанр: Драма, Боевик

Описание фильма:
Норвегия, 1363 год. После страшной эпидемии Великой Чумы, бушевавшей более десяти лет и унесшей жизни около половины населения страны, семья бедных крестьян отправляется на поиски лучшей жизни. Во время путешествия по горам они подвергаются нападению хищных и безжалостных бандитов, которые уводят в плен молодую девятнадцатилетнюю девушку Сигне. Оказавшись в лагере разбойников, Сигне понимает, что ей уготована судьба не многим лучшая, чем смерть. И что сейчас единственное для нее спасение заключается в бегстве.

Режиссер: Роар Утхауг
Актеры: Ингрид Болсай Бердал, Tobias Santelmann, Бьорн Моан, Халлвард Холмен, Кристиан Эспедаль, Изабель Кристин Андерсен, Ирен Реппен, Ганс Джейкоб Сэнд

Продолжительность: 01:21:37
Качество видео: HDRip
Перевод: Профессиональный многоголосый



Дата мировой премьеры: MediaInfo:

Видеокодек: Xvid
Битрейт видео: ~1937 kb/s
Размер кадра: 720x304
Аудио #1 - Русский: AC3, 2 ch, 224 kb/s
Аудио #2 - Норвержский : AC3, 2 ch, 224 kb/s
Сэмпл: Ссылка

MediaInfo:

Общее
Полное имя : E:\Фильмы\Пленница.Побег.2012.HDRip.avi
Формат : AVI
Формат/Информация : Audio Video Interleave
Размер файла : 1,37 Гбайт
Продолжительность : 1 ч. 21 м.
Общий поток : 2399 Кбит/сек
Программа кодирования : VirtualDubMod 1.5.10.2 (build 2540/release)
Библиотека кодирования : VirtualDubMod build 2540/release

Видео
Идентификатор : 0
Формат : MPEG-4 Visual
Профиль формата : Advanced Simple@L5
Параметр BVOP формата : 2
Параметр QPel формата : Нет
Параметр GMC формата : Без точки перехода
Параметр матрицы формата : Выборочная
Идентификатор кодека : XVID
Идентификатор кодека/Подсказка : XviD
Продолжительность : 1 ч. 21 м.
Битрейт : 1937 Кбит/сек
Ширина : 720 пикселей
Высота : 304 пикселя
Соотношение сторон : 2,35:1
Частота кадров : 24,000 кадра/сек
Цветовое пространство : YUV
Субдискретизация насыщенности : 4:2:0
Битовая глубина : 8 бит
Тип развёртки : Прогрессивная
Метод сжатия : С потерями
Бит/(Пиксели*Кадры) : 0.369
Размер потока : 1,10 Гбайт (81%)
Библиотека кодирования : XviD 64

Аудио #1
Идентификатор : 1
Формат : AC-3
Формат/Информация : Audio Coding 3
Расширение режима : CM (complete main)
Параметр Endianness формата : Big
Идентификатор кодека : 2000
Продолжительность : 1 ч. 21 м.
Вид битрейта : Постоянный
Битрейт : 224 Кбит/сек
Каналы : 2 канала
Расположение каналов : Front: L R
Частота : 48,0 КГц
Битовая глубина : 16 бит
Метод сжатия : С потерями
Размер потока : 131 Мбайт (9%)
Выравнивание : Разделение по промежуткам
Продолжительность промежутка : 42 мс. (1,00 видеокадр)
Время предзагрузки промежутка : 500 мс.

Аудио #2
Идентификатор : 2
Формат : AC-3
Формат/Информация : Audio Coding 3
Расширение режима : CM (complete main)
Параметр Endianness формата : Big
Идентификатор кодека : 2000
Продолжительность : 1 ч. 21 м.
Вид битрейта : Постоянный
Битрейт : 224 Кбит/сек
Каналы : 2 канала
Расположение каналов : Front: L R
Частота : 48,0 КГц
Битовая глубина : 16 бит
Метод сжатия : С потерями
Размер потока : 131 Мбайт (9%)
Выравнивание : Разделение по промежуткам
Продолжительность промежутка : 42 мс. (1,00 видеокадр)
Время предзагрузки промежутка : 500 мс.
Скриншоты:


Смотреть Online

http://moonwalk.cc/video/aa48f7942a3d1be1/iframe
Детали торрента:
Название:Пленница. Побег / Flukt (2012) HDRip
Дата добавления:06 Окт 2014 08:28:27
Размер:1,37 GB
Раздают:1
Качают:0
Форум:Зарубежные Фильмы (HD*Rip/LQ, DVDRip, SATRip, VHSRip)

All rights reserved © 2015-2018