TORRENTS43.XYZ

Скачать Дмитрий Науменко | Воспламенитель Кода: Сайт-Визитка на CodeIgniter (2012) PCRec [H.264/720p-LQ] [unpacked]


Дмитрий Науменко | Воспламенитель Кода: Сайт-Визитка на CodeIgniter (2012) PCRec
Автор (режиссер): Дмитрий Науменко
Жанр: Обучающее видео
Язык: Русский
Продолжительность: 07.53.20
Качество видео: PCRec
Видеокодек: AVC/H.264
Битрейт видео: ~300-500 Кб/с
Размер кадра: 1250х670
Аудиокодек: AAC, 2.0
Битрейт аудио: 125 kb/s

Описание:
Курс по работе с фреймворком CodeIgniter от Дмитрия Науменко.

Скриншоты:

Содержание:

1.Введение
2.Разбираемся с HTML-разметкой, CSS и javascript
3.Переносим сайт на CodeIgniter и разбираем основные понятия ООП - объектно-ориентированного программирования
4.Концепция MVC (Модель-Вид-Контроллер) и создание первого Контроллера
5.Осваиваем работу с базой данных и phpMyAdmin
6.Выводим информацию из базы данных на страницу
7.Улучшаем URL-адреса сайта
8.Работаем над формой обратной связи
9.Используем сессии и AJAX-запросы
10.Обновление капчи без перезагрузки страницы
11.Панель администратора: добавление страниц
12.Автоматический вывод страниц в навигационном меню
13.Подключаем визуальный редактор контента для добавления и редактирования страниц
14.Обновление и удаление страниц
15.Дорабатываем сайт и приступаем к защите админки
16.Занимаемся функцией авторизации
17.Управляем настройками из админки
18.Оптимизируем сайт и реализуем выделение текущего пункта меню
19.Переносим сайт на реальный сервер

MediaInfo:

Общее
Полное имя : lesson2.mp4
Формат : MPEG-4
Профиль формата : Base Media / Version 2
Идентификатор кодека : mp42
Размер файла : 58,4 Мбайт
Продолжительность : 13 м.
Общий поток : 595 Кбит/сек
Дата кодирования : UTC 2012-04-10 10:11:18
Дата пометки : UTC 2012-04-10 10:11:18

Видео
Идентификатор : 1
Формат : AVC
Формат/Информация : Advanced Video Codec
Профиль формата : High@L3.1
Параметр CABAC формата : Да
Параметр ReFrames формата : 4 кадра
Идентификатор кодека : avc1
Идентификатор кодека/Информация : Advanced Video Coding
Продолжительность : 13 м.
Продолжительность оригинала : 13 м.
Битрейт : 468 Кбит/сек
Ширина : 1250 пикселей
Высота : 670 пикселей
Соотношение сторон : 1,85:1
Режим частоты кадров : Постоянный
Частота кадров : 15,000 кадров/сек
Цветовое пространство : YUV
Субдискретизация насыщенности : 4:2:0
Битовая глубина : 8 бит
Тип развёртки : Прогрессивная
Бит/(Пиксели*Кадры) : 0.037
Размер потока : 45,9 Мбайт (79%)
Размер потока оригинала : 45,9 Мбайт (79%)
Язык : English
Дата кодирования : UTC 2012-04-10 10:11:18
Дата пометки : UTC 2012-04-10 10:11:18
Основные цвета : BT.709
Характеристики трансфера : BT.709
Коэффициенты матрицы : BT.709
mdhd_Duration : 822775

Аудио
Идентификатор : 2
Формат : AAC
Формат/Информация : Advanced Audio Codec
Профиль формата : LC
Идентификатор кодека : 40
Продолжительность : 13 м.
Продолжительность оригинала : 13 м.
Вид битрейта : Постоянный
Битрейт : 125 Кбит/сек
Каналы : 2 канала
Расположение каналов : Front: L R
Частота : 44,1 КГц
Метод сжатия : С потерями
Размер потока : 12,3 Мбайт (21%)
Размер потока оригинала : 12,3 Мбайт (21%)
Язык : English
Дата кодирования : UTC 2012-04-10 10:11:18
Дата пометки : UTC 2012-04-10 10:11:18
mdhd_Duration : 822498
Детали торрента:
Название:Дмитрий Науменко | Воспламенитель Кода: Сайт-Визитка на CodeIgniter (2012) PCRec [H.264/720p-LQ] [unpacked]
Дата добавления:02 Окт 2014 23:27:57
Размер:5,35 GB
Раздают:1
Качают:0
Форум:Компьютеры

All rights reserved © 2015-2018