TORRENTS43.XYZ

Скачать Discovery: Город наизнанку. Новый Орлеан - город ураганов / Strip the city. Hurricane City - New Orleans (2014) HDTVRip [hand made 50fps]


Discovery: Город наизнанку. Новый Орлеан - город ураганов / Strip the city. Hurricane City - New Orleans (2014) HDTVRip [hand made 50fps]
Режиссер / Телекомпания: Discovery

Русское название: Город наизнанку
Оригинальное название: Strip the city
Год выпуска: 2014
Жанр: Документальный, познавательный, путешествие
Выпущено: Великобритания, Канада, Windfall Films, Handel Productions, Discovery Channel

Описание:
Как будет выглядеть город, если «вывернуть»его наизнанку, словно свитер? Программа Discovery Channel «Город наизнанку» представит эту невероятную картину телезрителям. Во втором сезоне вы увидите «внутренности» Парижа, Нью-Йорка, Нового Орлеана, Чикаго, Лос-Анджелеса, Токио, Венеции и Мачу-Пикчу. При помощи компьютерной графики с домов и улиц слой за слоем будут сняты стекло, бетон, кирпичи и асфальт – и перед нами предстанут сложнейшие системы, которые позволяют огромным мегаполисам функционировать подобно живому организму.
Каждая серия программы покажет удивительные технологические достижения, скрывающиеся под землей и за фасадами зданий. Как вода попадает на последние этажи небоскребов? Как избежать транспортного коллапса в метро, если случится сбой электростанции? Куда исчезает мусор, который в огромных количествах производится жителями современного мегаполиса? Особое внимание авторы программы уделили теме безопасности. Как Токио, который расположен в сейсмически активной зоне, способен выдержать несколько сотен землетрясений в год? Чему стоит поучиться современным архитекторам у древних инков, создавших удивительный город Мачу-Пикчу? Какие уроки извлекли строители после урагана «Катрина», который практически стер с земли Новый Орлеан? Зачем Парижу нужна сеть подземных тоннелей протяженностью более 300 километров? Взгляните на привычные городские ландшафты по-новому в новом сезоне программы «Город наизнанку»!

Режиссер: Пол Авилес, Дэвид Барри
В ролях: Том Кикот, Грег Холл, Ванесса О`Коннелл, Филип Холидэй, Эндрю Марсонет, Брэд Пиланс, Тони Лэйнг, Ивонн Кайзер-Гласс, Ян Таннер, Джейми Битти, Аманда Браун, Роджер Билхэм

В выпуске: Новый Орлеан - город ураганов / Hurricane City - New Orleans

Текст читал: Владислав Букин
Озвучено: Студия Кириллица
Перевод: Профессиональный (одноголосый, закадровый)

Продолжительность: 00:43:51

Видеокодек: Xvid
Битрейт видео: ~1520 Кбит/сек
Размер кадра: 720 x 400
Качество видео: HDTVRip
Аудиокодек: AC-3, 2ch.
Битрейт аудио: 192 Кбит/сек

MediaInfo:

Формат : AVI
Формат/Информация : Audio Video Interleave
Размер файла : 543 Мбайт
Продолжительность : 43 м.
Общий поток : 1732 Кбит/сек
Программа кодирования : VirtualDubMod 1.5.10.3 | www.virtualdub-fr.org || (build 2550/release)
Библиотека кодирования : VirtualDubMod build 2550/release

Видео
Идентификатор : 0
Формат : MPEG-4 Visual
Профиль формата : Advanced Simple@L5
Параметр BVOP формата : 1
Параметр QPel формата : Нет
Параметр GMC формата : Без точки перехода
Параметр матрицы формата : Default (MPEG)
Идентификатор кодека : XVID
Идентификатор кодека/Подсказка : XviD
Продолжительность : 43 м.
Битрейт : 1521 Кбит/сек
Ширина : 720 пикселей
Высота : 400 пикселей
Соотношение сторон : 16:9
Частота кадров : 50,000 кадров/сек
Цветовое пространство : YUV
Субдискретизация насыщенности : 4:2:0
Битовая глубина : 8 бит
Тип развёртки : Прогрессивная
Метод сжатия : С потерями
Бит/(Пиксели*Кадры) : 0.106
Размер потока : 477 Мбайт (88%)
Библиотека кодирования : XviD 1.2.1 (UTC 2008-12-04)

Аудио
Идентификатор : 1
Формат : AC-3
Формат/Информация : Audio Coding 3
Расширение режима : CM (complete main)
Идентификатор кодека : 2000
Продолжительность : 43 м.
Вид битрейта : Постоянный
Битрейт : 192 Кбит/сек
Каналы : 2 канала
Расположение каналов : Front: L R
Частота : 48,0 КГц
Битовая глубина : 16 бит
Метод сжатия : С потерями
Размер потока : 60,2 Мбайт (11%)
Выравнивание : Разделение по промежуткам
Продолжительность промежутка : 20 мс. (1,00 видеокадр)
Время предзагрузки промежутка : 500 мс.
Скриншоты:

Детали торрента:
Название:Discovery: Город наизнанку. Новый Орлеан - город ураганов / Strip the city. Hurricane City - New Orleans (2014) HDTVRip [hand made 50fps]
Дата добавления:16 Авг 2014 08:05:11
Размер:543 MB
Раздают:1
Качают:0
Форум:Discovery

All rights reserved © 2015-2018