TORRENTS43.XYZ

Скачать Грейсленд / Graceland (2014) WEB-DL [H.264/720p-LQ] (Сезон 2, серии 1-13 из 13) NewStudio


Грейсленд / Graceland (2014) WEB-DL [H.264/720p-LQ] (Сезон 2, серии 1-13 из 13) NewStudio
Год выпуска: 2014
Страна: США
Жанр: боевик, драма, криминал

Перевод: Многоголосый закадровый, профессиональный - NewStudio

Автор перевода: Наталья Черненко



Режиссер: Ренни Харлин
Актеры: Дэниел Сунджата, Ванесса Ферлито, Брэндон Джей МакЛарен, Стивен Л. Коэн, Том Стэдхем, Аарон Твейт, Мэнни Монтана и др.

Описание:
Сотрудников наркоконтроля, ФБР и таможенной службы собирают в одном доме, который получил название «Грейсленд», для работы под прикрытием. Молодой агент Майк Уоррен (Аарон Твейт), поступает под руководство более опытного коллеги агента Пола Бриггса (Дэниел Сунджата), который готов приплатить Майку, лишь бы тот сбежал.

Продолжительность: ~00:43:00 серия
Качество видео: WEB-DL 720p

Видеокодек: AVC
Формат: MKV
Битрейт видео: ~3900 kb/s
Размер кадра: 1280x720 (16:9)
Аудио Rus: (AC-3, 48,0 kHz, 6 ch, 384 kb/s) - многоголосый закадровый
Аудио Eng: (AC-3, 48,0 kHz, 6 ch, 384 kb/s) - оригинал

Сэмпл
Все раздачи "Грейсленд / Graceland"

MediaInfo

Общее
Общее
Уникальный идентификатор : 175675486584348317106355272118707353942 (0x8429DE35F4006FBAB7F9927FA9AEF956)
Полное имя : D:\Грейсленд (Сезон 2) Graceland (2014) WE-BDL 720p - NewStudio\Graceland.s02e01.WEBDL.720p.NewStudio.TV.mkv
Формат : Matroska
Версия формата : Version 4 / Version 2
Размер файла : 1,43 Гбайт
Продолжительность : 43 м.
Общий поток : 4748 Кбит/сек
Дата кодирования : UTC 2014-06-16 07:24:04
Программа кодирования : mkvmerge v7.0.0 ('Where We Going') 64bit built on Jun 9 2014 15:16:27
Библиотека кодирования : libebml v1.3.0 + libmatroska v1.4.1
DURATION : 00:43:05.088000000
NUMBER_OF_FRAMES : 80784
NUMBER_OF_BYTES : 124084224
_STATISTICS_WRITING_APP : mkvmerge v7.0.0 ('Where We Going') 64bit built on Jun 9 2014 15:16:27
_STATISTICS_WRITING_DATE_UTC : 2014-06-16 07:24:04
_STATISTICS_TAGS : BPS DURATION NUMBER_OF_FRAMES NUMBER_OF_BYTES

Видео
Идентификатор : 1
Формат : AVC
Формат/Информация : Advanced Video Codec
Профиль формата : High@L3.1
Параметр CABAC формата : Нет
Параметр ReFrames формата : 2 кадра
Идентификатор кодека : V_MPEG4/ISO/AVC
Продолжительность : 43 м.
Битрейт : 3886 Кбит/сек
Ширина : 1280 пикселей
Высота : 720 пикселей
Соотношение сторон : 16:9
Режим частоты кадров : Постоянный
Частота кадров : 23,976 кадра/сек
Цветовое пространство : YUV
Субдискретизация насыщенности : 4:2:0
Битовая глубина : 8 бит
Тип развёртки : Прогрессивная
Бит/(Пиксели*Кадры) : 0.176
Размер потока : 1,17 Гбайт (82%)
Язык : English
Default : Да
Forced : Нет
Основные цвета : BT.709
Характеристики трансфера : BT.709
Коэффициенты матрицы : BT.709

Аудио #1
Идентификатор : 2
Формат : AC-3
Формат/Информация : Audio Coding 3
Расширение режима : CM (complete main)
Параметр Endianness формата : Big
Идентификатор кодека : A_AC3
Продолжительность : 43 м.
Вид битрейта : Постоянный
Битрейт : 384 Кбит/сек
Каналы : 6 каналов
Расположение каналов : Front: L C R, Side: L R, LFE
Частота : 48,0 КГц
Битовая глубина : 16 бит
Метод сжатия : С потерями
Размер потока : 118 Мбайт (8%)
Язык : Russian
Default : Да
Forced : Нет

Аудио #2
Идентификатор : 3
Формат : AC-3
Формат/Информация : Audio Coding 3
Расширение режима : CM (complete main)
Параметр Endianness формата : Big
Идентификатор кодека : A_AC3
Продолжительность : 43 м.
Вид битрейта : Постоянный
Битрейт : 384 Кбит/сек
Каналы : 6 каналов
Расположение каналов : Front: L C R, Side: L R, LFE
Частота : 48,0 КГц
Битовая глубина : 16 бит
Метод сжатия : С потерями
Размер потока : 118 Мбайт (8%)
Язык : English
Default : Нет
Forced : Нет

Список серий

01. The Line / Линия
02. Connects / Курс на сближение
03. Tinker Bell
04. Magic Number / Волшебный номер
05. H-A-Double-P-Y / С-Ч-А-С-Т-Л-И-В
06. The Unlucky One / Невезунчик
07. Los Malos / Плохие ребята
08. The Ends / Концы
09. Gratis / Халява
10. The Head of the Pig / Голова свиньи
11. Home / Дом
12. Echoes, Pt. 1 / Эхо
13. Faith 7 / Вера 7
Скриншоты:


Смотреть Online

http://moonwalk.cc/serial/8a35a05df18e78809cefa05bb6399880/iframe
Детали торрента:
Название:Грейсленд / Graceland (2014) WEB-DL [H.264/720p-LQ] (Сезон 2, серии 1-13 из 13) NewStudio
Дата добавления:14 Сен 2014 16:09:28
Размер:18,8 GB
Раздают:
Качают:0
Форум:Архив Сериалов

All rights reserved © 2015-2018