TORRENTS43.XYZ

Скачать Ив Сен-Лоран / Yves Saint Laurent (2014) BDRip [1080p] [Line]


Ив Сен-Лоран / Yves Saint Laurent (2014) BDRip
Год выпуска: 2014
Производство: Франция - Wy Productions, SND, Cinfrance 1888, Canal+
Жанр: Драма, биография
Перевод: Многоголосый закадровый, профессиональный |Line|
Субтитры: Вшитые отключаемые
Язык субтитров: Английский

Режиссер: Джалиль Леспер / Jalil Lespert
Актеры: Пьер Нинэ, Гийом Гальенн, Шарлотта Ле Бон, Лаура Смет, Мари де Вильпен, Николай Кински, Рубен Алвес, Астрид Ветналл, Марианн Басле, Аделин О’Эрми

Описание фильма:
Париж, январь 1958 года. Ив Сен Лоран в возрасте 21-го года неожиданно был призван управлять большими домами моды, которыми заведовал недавно умерший Кристиан Диор. Очень молодой помощник привлек всеобщее внимание своей первой же коллекцией одежды…



Дата мировой премьеры: 8 января 2014
Дата российской премьеры: 20 марта 2014, «Top Film Distribution»
Дата выхода DVD релиза: 13 мая 2014, «Lizard Cinema Trade»

Продолжительность: 01:40:13
Качество видео: BDRip 1080p

Видеокодек: MPEG-4 AVC/H.264
Видео: H264, 12.1 Мбит/сек, 1920x804, 24,000 кадра/сек
Аудио #1: Русский: AC3, 2.0, 192 Кбит/с, 48kHz, 16 bit
Аудио #2: Французский: DTS, 5.1, 1536 Кбит/с, 48 kHz, 24 bit

MediaInfo:

Общее
Уникальный идентификатор : 170895078321143846388626087011996054396 (0x809131E2EA6D683EB28C2612BBD2B37C)
Полное имя : D:\Video\Yves.Saint.Laurent.2014.Blu.Ray.1080p.mkv
Формат : Matroska
Версия формата : Version 4 / Version 2
Размер файла : 10,1 Гбайт
Продолжительность : 1 ч. 45 м.
Общий поток : 13,8 Мбит/сек
Дата кодирования : UTC 2014-05-19 11:08:10
Программа кодирования : mkvmerge v6.3.0 ('You can't stop me!') built on Jun 28 2013 20:09:41
Библиотека кодирования : libebml v1.3.0 + libmatroska v1.4.0

Видео
Идентификатор : 1
Формат : AVC
Формат/Информация : Advanced Video Codec
Профиль формата : High@L4.1
Параметр CABAC формата : Да
Параметр ReFrames формата : 5 кадров
Идентификатор кодека : V_MPEG4/ISO/AVC
Продолжительность : 1 ч. 45 м.
Битрейт : 12,1 Мбит/сек
Ширина : 1920 пикселей
Высота : 804 пикселя
Соотношение сторон : 2,40:1
Режим частоты кадров : Постоянный
Частота кадров : 24,000 кадра/сек
Цветовое пространство : YUV
Субдискретизация насыщенности : 4:2:0
Битовая глубина : 8 бит
Тип развёртки : Прогрессивная
Бит/(Пиксели*Кадры) : 0.326
Размер потока : 8,68 Гбайт (86%)
Библиотека кодирования : x264 core 130 r2273 b3065e6
Настройки программы : cabac=1 / ref=5 / deblock=1:-3:-3 / analyse=0x3:0x133 / me=umh / subme=11 / psy=1 / psy_rd=1.05:0.05 / mixed_ref=1 / me_range=64 / chroma_me=1 / trellis=2 / 8x8dct=1 / cqm=0 / deadzone=21,11 / fast_pskip=0 / chroma_qp_offset=-3 / threads=12 / lookahead_threads=2 / sliced_threads=0 / nr=0 / decimate=1 / interlaced=0 / bluray_compat=0 / constrained_intra=0 / bframes=8 / b_pyramid=2 / b_adapt=2 / b_bias=0 / direct=3 / weightb=1 / open_gop=0 / weightp=2 / keyint=250 / keyint_min=24 / scenecut=40 / intra_refresh=0 / rc_lookahead=60 / rc=2pass / mbtree=1 / bitrate=12075 / ratetol=1.0 / qcomp=0.60 / qpmin=0 / qpmax=69 / qpstep=4 / cplxblur=20.0 / qblur=0.5 / vbv_maxrate=40000 / vbv_bufsize=30000 / nal_hrd=none / ip_ratio=1.40 / aq=1:0.80
Язык : English
Default : Нет
Forced : Нет

Аудио #1
Идентификатор : 2
Формат : AC-3
Формат/Информация : Audio Coding 3
Расширение режима : CM (complete main)
Параметр Endianness формата : Big
Идентификатор кодека : A_AC3
Продолжительность : 1 ч. 45 м.
Вид битрейта : Постоянный
Битрейт : 192 Кбит/сек
Каналы : 2 канала
Расположение каналов : Front: L R
Частота : 48,0 КГц
Битовая глубина : 16 бит
Метод сжатия : С потерями
Размер потока : 145 Мбайт (1%)
Заголовок : Line
Язык : Russian
Default : Нет
Forced : Нет

Аудио #2
Идентификатор : 3
Формат : DTS
Формат/Информация : Digital Theater Systems
Режим : 16
Параметр Endianness формата : Big
Идентификатор кодека : A_DTS
Продолжительность : 1 ч. 45 м.
Вид битрейта : Постоянный
Битрейт : 1509 Кбит/сек
Каналы : 6 каналов
Расположение каналов : Front: L C R, Side: L R, LFE
Частота : 48,0 КГц
Битовая глубина : 16 бит
Метод сжатия : С потерями
Размер потока : 1,11 Гбайт (11%)
Язык : French
Default : Нет
Forced : Нет

Текст
Идентификатор : 4
Формат : UTF-8
Идентификатор кодека : S_TEXT/UTF8
Идентификатор кодека/Информация : UTF-8 Plain Text
Язык : English
Default : Нет
Forced : Нет

Рецензия:

«Самая лучшая одежда для женщины — это объятия любящего ее мужчины. Но для тех, кто лишен такого счастья, есть я.» Ив Сен-Лоран

Под какой-то внутренней потребности, наверное в первую очередь увидеть Париж 1958 г., и узнать как же она становилась, высокая мода Франции — я смотрю на большом экране «Ив Сен-Лоран». Франция 2014. И как с последним фильмом Ларса фон Триера, не так все просто, как кажется изначально. Ив Сен-Лоран, фильм драма, биография. Честно, фильм грустный.. Но красивый, сделан с любовь и очень элегантный, все очень аккуратно, грациозно, эстетично.. так по-французски) и даже отношения Сен- Лорана с Пьером Берже показаны очень аккуратно. И чувствуется, что «своего героя» французы показали больным гением, больным в плане нарушений психики и невротика, но гением, и конечно все это приправлено Уважением к мастеру.. Ну а если просто, то фильм о Гении, со всеми болячками психики, радостями и печалями, с его пьянством и наркотической зависимостью, с его походами в гей клубы, поисками себя. О том, что любовь к его музе красотке Виктории может пройти прахом, из -за того, что он не смог побороть свою нерешительность, патологическую скромность застенчивость…(не только любовь к этой красотке пошла прахам, а умение любить женщин в целом…) Да и о силе духа, заявить себя миру, и вообще о силе характера и страхе проявить себя, вообще фильм о многом, о том, что можно быть несчастным, попивая виски и подписывая ошеломительные контракты, на веранде пентхауса, когда весь Париж у ног… Но так много сделать для Мира.

И конечно, о Красоте!да как бы о моде (со всеми логическими ходами его мыслей, коллекциями, маркетингом), но о красоте! т. е. о том гормоне или чувстве о тех бабочках которые рождаются у человека.. . при виде или ощущениях какого -то объекта.. . а вот кто или что будет объектом это вопрос второй, об умении чувствовать красоту и в случаи Сен — Лорана суметь передать ее… тут же вспомнился фильм «Красота по- американски», когда парня восхищал летающий целлофановый пакет на ветру. Когда Ив Сен-Лоран говорил про своих дружочков, он в первую очередь говорил об их элегантности, опять таки о красоте… по сути только видимой ему, красоте.

Хотя опять же, вот ирония да, он создавал шедевры, в которых женщины покоряли мужские сердца, он подчеркивал всю женственность, сексуальность в них и Красоту, он их чувствовал… при том, что сам так и не смог их любить.

9 из 10
Скриншоты:


Смотреть Online

http://moonwalk.cc/video/b334ab57448ba2eaf7a68db4baa46b5d/iframe
Детали торрента:
Название:Ив Сен-Лоран / Yves Saint Laurent (2014) BDRip [1080p] [Line]
Дата добавления:19 Май 2014 15:04:28
Размер:10,1 GB
Раздают:2
Качают:0
Форум:Авторское кино

All rights reserved © 2015-2018