TORRENTS43.XYZ

Скачать Багряное поле / The Crimson Field (2014) HDTVRip [сезон 1, серия 1-6 из 6] ViruseProject


Багряное поле / The Crimson Field (2014) HDTVRip [сезон 1, серия 1-5 из 6] ViruseProject
Год выпуска: 2014
Жанр: Драма, Военный
Страна: Великобритания

Перевод: Многоголосый закадровый, профессиональный - ViruseProject

Закадровое озвучание: Елена Емельянова, Марина Видякина, Полина Касаткина, Алексей Кизуб, Дмитрий Иванов
Автор перевода: Vela, blatta, defying, victoria_vn, eddisson, yurabukin, Tink
Подготовка видео, монтаж, сведение звука: viruse (Виталий Емельянов)
Озвучено при поддержке AVIASALES



Режиссер: Ричард Кларк, Дэвид Эванс, Тадеус О’Салливан
Актеры: Уна Чаплин (Игра престолов, Шерлок и др.), Гермиона Норрис, Ричард Ранкин, Марианн Олдхэм, Алекс Уиндэм, Кевин Дойл, Керри Фокс, Сюранна Джоунс и др.

Описание фильма:
Шестисерийная драма BBC One «Багряное поле» расскажет неизвестную историю о Первой мировой войне. В палаточном полевом госпитале на побережье Франции команда врачей, медсестер и женщин-добровольцев работает вместе, чтобы вылечить тела и души людей, раненных на поле боя. Больница является границей не только между передовой и тылом, но и между старыми правилами, иерархиями, классовыми различиями и новым мышлением.

Продолжительность: ~00:58:00 серия
Качество видео: HDTVRip
Сэмпл: Скачать
смотреть СЕМПЛ озвучки на rutube
смотреть ТРЕЙЛЕР сериала на youtube

Формат: AVI
Видео кодек: XviD
Битрейт видео: ~1338 kbps
Размер кадра: 720х400 (1.80:1)
Аудио: 48 kHz, MPEG Layer 3, 2 ch, ~192.00 kbps avg, 2.0

MediaInfo

D:\ОЗВУЧКА\СЕРИАЛЫ\The.Crimson.Field.S01.ViruseProject\The.Crimson.Field.S01.ViruseProject\The.Crimson.Field.S01E01.ViruseProject.avi
General
Complete name : D:\ОЗВУЧКА\СЕРИАЛЫ\The.Crimson.Field.S01.ViruseProject\The.Crimson.Field.S01.ViruseProject\The.Crimson.Field.S01E01.ViruseProject.avi
Format : AVI
Format/Info : Audio Video Interleave
File size : 632 MiB
Duration : 57mn 22s
Overall bit rate : 1 541 Kbps
Writing application : VirtualDubMod 1.5.10.2 (build 2540/release)
Writing library : VirtualDubMod build 2540/release
Video #0
ID : 0
Format : MPEG-4 Visual
Format profile : Advanced Simple@L5
Format settings, BVOP : 1
Format settings, QPel : No
Format settings, GMC : No warppoints
Format settings, Matrix : Default (MPEG)
Codec ID : XVID
Codec ID/Hint : XviD
Duration : 57mn 22s
Bit rate : 1 339 Kbps
Width : 720 pixels
Height : 400 pixels
Display aspect ratio : 16:9
Frame rate : 25.000 fps
Color space : YUV
Chroma subsampling : 4:2:0
Bit depth : 8 bits
Scan type : Progressive
Compression mode : Lossy
Bits/(Pixel*Frame) : 0.186
Stream size : 549 MiB (87%)
Writing library : XviD 1.2.1 (UTC 2008-12-04)
Audio #1
ID : 1
Format : MPEG Audio
Format version : Version 1
Format profile : Layer 3
Mode : Joint stereo
Mode extension : MS Stereo
Codec ID : 55
Codec ID/Hint : MP3
Duration : 57mn 22s
Bit rate mode : Constant
Bit rate : 192 Kbps
Channel count : 2 channels
Sampling rate : 48.0 KHz
Compression mode : Lossy
Stream size : 78.8 MiB (12%)
Alignment : Split accross interleaves
Interleave, duration : 40 ms (1.00 video frame)
Interleave, preload duration : 500 ms
Скриншоты:


Все релизы «Багряное поле / The Crimson Field»

Смотреть Online

http://moonwalk.cc/serial/22be317eb8c7db474019cf7b0fafe4d3/iframe
Детали торрента:
Название:Багряное поле / The Crimson Field (2014) HDTVRip [сезон 1, серия 1-6 из 6] ViruseProject
Дата добавления:20 Май 2014 12:06:54
Размер:3,71 GB
Раздают:
Качают:0
Форум:Архив Сериалов

All rights reserved © 2015-2018