TORRENTS43.XYZ

Скачать David Lynch - The Big Dream (2013) /Deluxe Edition/ [FLAC|Lossless]<Avant-Garde, Alternative Rock, Experimental>


David Lynch - The Big Dream (2013) /Deluxe Edition/


Год: 2013 | Жанр: Avant-Garde, Alternative Rock, Experimental
Лейбл: Sunday Best Recordings / [PIAS] | Каталог#: SBESTCD61X
Продолжительность: 01:24:10
Кодек: FLAC | Битрейт: Lossless | Тип рипа: tracks+cue


CD1


Треклист:

01. The Big Dream (04:07)
02. Star Dream Girl (03:27)
03. Last Call (03:48)
04. Cold Wind Blowin' (03:49)
05. The Ballad Of Hollis Brown (05:12)
06. Wishin' Well (03:39)
07. Say It (03:58)
08. We Rolled Together (04:00)
09. Sun Can't Be Seen No More (04:40)
10. I Want You (03:47)
11. The Line It Curves (06:02)
12. Are You Sure (03:46)

Продолжительность: 00:50:19

Отчет auCDtect Task manager:

Код:
-----------------------

DON'T MODIFY THIS FILE

-----------------------

PERFORMER: auCDtect Task Manager, ver. 1.6.0 RC1 build 1.6.0.1
Copyright (c) 2008-2010 y-soft. All rights reserved
http://y-soft.org

ANALYZER: auCDtect: CD records authenticity detector, version 0.8.2
Copyright (c) 2004 Oleg Berngardt. All rights reserved.
Copyright (c) 2004 Alexander Djourik. All rights reserved.

FILE: 12 - Are You Sure.flac
  Size: 21923975 Hash: 52C06A16470E3162DC38FE66649A705F Accuracy: -m0
  Conclusion: CDDA 100%
  Signature: 5EEF0E36F2B29E6F2807BC538E983B40C772D1FD
FILE: 11 - The Line It Curves.flac
  Size: 41736730 Hash: 388EF1D8C0B50EA5A3BFD265E78DF092 Accuracy: -m0
  Conclusion: CDDA 100%
  Signature: 7D4774634478AE19607DB3CE510ABB65CE4FA65F
FILE: 10 - I Want You.flac
  Size: 23438116 Hash: 71D7A11E03067E07C9FF9EF2CBFBECB7 Accuracy: -m0
  Conclusion: CDDA 100%
  Signature: A93D52E4139A7EA3112C947ACE25BDAACC3F12B4
FILE: 09 - Sun Can't Be Seen No More.flac
  Size: 31619445 Hash: 7F60B9C5BF84DF7AF398FCB51B5F5BFA Accuracy: -m0
  Conclusion: CDDA 100%
  Signature: 28B8A381A7B75FCF08700CD379769A1A787AC933
FILE: 08 - We Rolled Together.flac
  Size: 23358175 Hash: 309F05ACD9DCF601840F3112105FE656 Accuracy: -m0
  Conclusion: CDDA 100%
  Signature: 2C74D32AFD75C20A31CBA9C3696E982DC625B08F
FILE: 07 - Say It.flac
  Size: 26352690 Hash: 1ADE57254F02B887402BEA54446DA8E3 Accuracy: -m0
  Conclusion: CDDA 100%
  Signature: 0F8F07F8FE0F4BD3CBEF003FE78F517645EE0802
FILE: 06 - Wishin' Well.flac
  Size: 22755424 Hash: 5404E11C0B418E765FA423E52A9E32D0 Accuracy: -m0
  Conclusion: CDDA 100%
  Signature: EFBB81FC2CAD84C25511E1216F3BB29BB177E68E
FILE: 05 - The Ballad Of Hollis Brown.flac
  Size: 34392746 Hash: F9E0680F724F96A8284AEFA81B4DA31D Accuracy: -m0
  Conclusion: CDDA 100%
  Signature: A7E6A6463F045FB1187B69BD5285F2D62856AA2C
FILE: 04 - Cold Wind Blowin'.flac
  Size: 21107846 Hash: 0670AFD15ACDEBA4EEE853ABBBB72BA7 Accuracy: -m0
  Conclusion: CDDA 100%
  Signature: 478B6A8C7D1A9FCD8F6EC2F8DA07010F3A98E2CB
FILE: 03 - Last Call.flac
  Size: 22245297 Hash: C7EAC8E03EBDAF15EEBC85879426D58B Accuracy: -m0
  Conclusion: CDDA 100%
  Signature: 625CB34675601D9A8F5B1F354EABDE7A582B0E60
FILE: 02 - Star Dream Girl.flac
  Size: 22659863 Hash: F427FA255E9C24589BF06466083F138B Accuracy: -m0
  Conclusion: CDDA 100%
  Signature: 3AE423FA4A92184C9A9A0ACF2C2E6A8E565ED64F
FILE: 01 - The Big Dream.flac
  Size: 25564938 Hash: BC6707AB0D950C33102669F54FCF1178 Accuracy: -m0
  Conclusion: CDDA 100%
  Signature: 80C6CC5A389D9320567BC9CEBF4E92A5D9BD5998

Содержание индексной карты .Cue:

Код:
PERFORMER "David Lynch"
TITLE "The Big Dream (Deluxe) CD1"
REM DATE 2013
REM DISCNUMBER 1
REM TOTALDISCS 2
REM GENRE "Electronica"
FILE "01 - The Big Dream.flac" WAVE
  TRACK 01 AUDIO
    PERFORMER "David Lynch & Lykke Li"
    TITLE "The Big Dream"
    INDEX 01 00:00:00
FILE "02 - Star Dream Girl.flac" WAVE
  TRACK 02 AUDIO
    PERFORMER "David Lynch & Lykke Li"
    TITLE "Star Dream Girl"
    INDEX 01 00:00:00
FILE "03 - Last Call.flac" WAVE
  TRACK 03 AUDIO
    PERFORMER "David Lynch & Lykke Li"
    TITLE "Last Call"
    INDEX 01 00:00:00
FILE "04 - Cold Wind Blowin'.flac" WAVE
  TRACK 04 AUDIO
    PERFORMER "David Lynch & Lykke Li"
    TITLE "Cold Wind Blowin'"
    INDEX 01 00:00:00
FILE "05 - The Ballad Of Hollis Brown.flac" WAVE
  TRACK 05 AUDIO
    PERFORMER "David Lynch & Lykke Li"
    TITLE "The Ballad Of Hollis Brown"
    INDEX 01 00:00:00
FILE "06 - Wishin' Well.flac" WAVE
  TRACK 06 AUDIO
    PERFORMER "David Lynch & Lykke Li"
    TITLE "Wishin' Well"
    INDEX 01 00:00:00
FILE "07 - Say It.flac" WAVE
  TRACK 07 AUDIO
    PERFORMER "David Lynch & Lykke Li"
    TITLE "Say It"
    INDEX 01 00:00:00
FILE "08 - We Rolled Together.flac" WAVE
  TRACK 08 AUDIO
    PERFORMER "David Lynch & Lykke Li"
    TITLE "We Rolled Together"
    INDEX 01 00:00:00
FILE "09 - Sun Can't Be Seen No More.flac" WAVE
  TRACK 09 AUDIO
    PERFORMER "David Lynch & Lykke Li"
    TITLE "Sun Can't Be Seen No More"
    INDEX 01 00:00:00
FILE "10 - I Want You.flac" WAVE
  TRACK 10 AUDIO
    PERFORMER "David Lynch & Lykke Li"
    TITLE "I Want You"
    INDEX 01 00:00:00
FILE "11 - The Line It Curves.flac" WAVE
  TRACK 11 AUDIO
    PERFORMER "David Lynch & Lykke Li"
    TITLE "The Line It Curves"
    INDEX 01 00:00:00
FILE "12 - Are You Sure.flac" WAVE
  TRACK 12 AUDIO
    PERFORMER "David Lynch & Lykke Li"
    TITLE "Are You Sure"
    INDEX 01 00:00:00

Спектрограмма:



CD2


Треклист:

01. David Lynch & Lykke Li - I'm Waiting Here (05:02)
02. And Light Shines (03:40)
03. Bad The John Boy (04:36)
04. Are You Sure (Bastille Remix) (04:03)
05. Wishin’ Well (Hot Since 82 Remix) (06:37)
06. The Big Dream (Venetian Snares Remix) (04:15)
07. We Rolled Together (Yttling Jazz Remix) (05:35)

Продолжительность: 00:33:51

Отчет auCDtect Task manager:

Код:
-----------------------

DON'T MODIFY THIS FILE

-----------------------

PERFORMER: auCDtect Task Manager, ver. 1.6.0 RC1 build 1.6.0.1
Copyright (c) 2008-2010 y-soft. All rights reserved
http://y-soft.org

ANALYZER: auCDtect: CD records authenticity detector, version 0.8.2
Copyright (c) 2004 Oleg Berngardt. All rights reserved.
Copyright (c) 2004 Alexander Djourik. All rights reserved.

FILE: 07 - We Rolled Together (Yttling Jazz Remix).flac
  Size: 35195260 Hash: DE5D931078F40210D1F54120A9E80A54 Accuracy: -m0
  Conclusion: CDDA 100%
  Signature: 4EC0CD4F1F1E2AD8260329F427D47F477E02BC3C
FILE: 06 - The Big Dream (Venetian Snares Remix).flac
  Size: 26643800 Hash: FE5F876D80E31ACB0CD54286D69B34AF Accuracy: -m0
  Conclusion: CDDA 100%
  Signature: F40748C4C6F5A742B0641103CAF2B3B543354933
FILE: 05 - Wishin’ Well (Hot Since 82 Remix).flac
  Size: 43684466 Hash: D6DFDC2B7B768A656EC3B216BACDC180 Accuracy: -m0
  Conclusion: CDDA 100%
  Signature: 9B3D2337949FC59A4F3418E9CB129C1F2CEE867E
FILE: 04 - Are You Sure (Bastille Remix).flac
  Size: 28003081 Hash: A2DE4282F127644EEBD3D3C68B4973B2 Accuracy: -m0
  Conclusion: CDDA 100%
  Signature: 7DDF0A79B1726E8071DCCD614F407BC397B5528A
FILE: 03 - Bad The John Boy.flac
  Size: 24618307 Hash: 0F98EB129FEA549B3F0E05184546A199 Accuracy: -m0
  Conclusion: CDDA 100%
  Signature: 4EB72DB897E3851AE979B9EB28A2194D55FDDEE3
FILE: 02 - And Light Shines.flac
  Size: 25170027 Hash: C555F9780131032019616642CF5D5531 Accuracy: -m0
  Conclusion: CDDA 100%
  Signature: 2B745FE09E9D40C0FA21E20B0DDD71F887E1FEF3
FILE: 01 - I'm Waiting Here.flac
  Size: 31368962 Hash: 1D81FD6BCAF0B8C4CF95B04934BF2697 Accuracy: -m0
  Conclusion: CDDA 99%
  Signature: A6D8E7BD4438DF635DD835E4E7D873E56A05E52A
 

Содержание индексной карты .Cue:

Код:
PERFORMER "David Lynch"
TITLE "The Big Dream (Deluxe) CD2"
REM DATE 2013
REM DISCNUMBER 2
REM TOTALDISCS 2
REM GENRE "Electronic"
FILE "01 - I'm Waiting Here.flac" WAVE
  TRACK 01 AUDIO
    PERFORMER "David Lynch & Lykke Li"
    TITLE "I'm Waiting Here"
    INDEX 01 00:00:00
FILE "02 - And Light Shines.flac" WAVE
  TRACK 02 AUDIO
    PERFORMER "David Lynch & Lykke Li"
    TITLE "And Light Shines"
    INDEX 01 00:00:00
FILE "03 - Bad The John Boy.flac" WAVE
  TRACK 03 AUDIO
    PERFORMER "David Lynch & Lykke Li"
    TITLE "Bad The John Boy"
    INDEX 01 00:00:00
FILE "04 - Are You Sure (Bastille Remix).flac" WAVE
  TRACK 04 AUDIO
    PERFORMER "David Lynch & Lykke Li"
    TITLE "Are You Sure (Bastille Remix)"
    INDEX 01 00:00:00
FILE "05 - Wishin' Well (Hot Since 82 Remix).flac" WAVE
  TRACK 05 AUDIO
    PERFORMER "David Lynch & Lykke Li"
    TITLE "Wishin’ Well (Hot Since 82 Remix)"
    INDEX 01 00:00:00
FILE "06 - The Big Dream (Venetian Snares Remix).flac" WAVE
  TRACK 06 AUDIO
    PERFORMER "David Lynch & Lykke Li"
    TITLE "The Big Dream (Venetian Snares Remix)"
    INDEX 01 00:00:00
FILE "07 - We Rolled Together (Yttling Jazz Remix).flac" WAVE
  TRACK 07 AUDIO
    PERFORMER "David Lynch & Lykke Li"
    TITLE "We Rolled Together (Yttling Jazz Remix)"
    INDEX 01 00:00:00

Спектрограмма:



YouTube



Детали торрента:
Название:David Lynch - The Big Dream (2013) /Deluxe Edition/ [FLAC|Lossless]<Avant-Garde, Alternative Rock, Experimental>
Дата добавления:20 Мар 2014 02:41:28
Размер:507 MB
Раздают:
Качают:1
Форум:Other (Lossless)

All rights reserved © 2015-2018