TORRENTS43.XYZ

Скачать Ведьмы из Сугаррамурди / Las brujas de Zugarramurdi (2013) DVD9


Ведьмы из Сугаррамурди / Las brujas de Zugarramurdi (2013) DVD9
Год выпуска: 2013
Производство: Испания, Франция, Enrique Cerezo Producciones Cinematográficas S.A., La Ferme! Productions
Жанр: комедия, приключения, фэнтези
Перевод: Дублированный
Субтитры: Вшитые отключаемые
Язык субтитров: Русский

Дата мировой премьеры: 14 сентября 2013
Дата российской премьеры: 17 октября 2013, «Каравелла DDC»
Дата выхода DVD релиза: 25 декабря 2013, «Кармен Видео»

Режиссер: Алекс де ла Иглесиа
Продюсер: Энрике Кересо, Веране Фредиани, Франк Рибьере
Актеры: Марио Касас, Уго Силва, Хавьер Ботет, Сантьяго Сегура, Каролина Банг, Кармен Маура, Карлос Аресес, Секун де ла Роса, Макарена Гомес, Пепон Ниэто

Описание фильма:
Трое незадачливых воришек попадают в заколдованный город, где на протяжении веков правят бал коварные ведьмы. Задача героев проста - унести ноги из страшного места. Для этого надо постараться не влюбиться в обитательниц этого гиблого места… Сюжет основан на подлинной истории, которая случилась здесь в начале XVII века, когда одна из жительниц деревни заявила, что она ведьма и регулярно участвует в шабашах в близлежащих пещерах со своими соседками. Тогда Святая Инквизиция арестовала почти всё население Сугаррамурди и окрестных сёл (около 300 человек), устроив суд по делу "Ведьминской деревни", который длился два года. В результате в 1610 году 40 жителей деревни были обвинены в колдовстве, а 11 из них — сожжены на костре. С тех пор Сугаррамурди запечатлелся в коллективной памяти как обиталище ведьм.



Продолжительность: 01:49:24
Качество видео: DVD9

Видео: MPEG-2; 7 454 Kbps; 720x576@1024x576; 25.000 fps; 16:9
Аудио #1: AC3, 3/2 (L,C,R,SL,SR)+LFE ch, 384 kbps (Русский)
Аудио #2: AC3, 2/0 (L,R) ch, 192 kbps (Русский)
Аудио #3: AC3, 3/2 (L,C,R,SL,SR)+LFE ch, 384 kbps (Испанский)
Сэмпл: Скачать

DVDInfo

Код: выделить все
Title: Vedmy.iz.Sugarramurdi.2013.DVD9.torrents43.xyz />Size: 6.84 Gb ( 7 168 344,00 KBytes ) - DVD-9
Enabled regions: 1, 2, 3, 4, 5, 6, 7, 8

VTS_01 :
  Play Length: 00:00:01+01:49:24+00:00:01
  Video: PAL 16:9 (720x576) VBR, Auto Letterboxed
  Audio:
      Russian, AC3, 3/2 (L,C,R,SL,SR)+LFE ch, 384 kbps, Delay 0 mSec
      Russian, AC3, 2/0 (L,R) ch, 192 kbps, Delay 0 mSec
      Espanol, AC3, 3/2 (L,C,R,SL,SR)+LFE ch, 384 kbps, Delay 0 mSec

  Subtitles:
      Russian

VTS_02 :
  Play Length: 00:00:01+00:00:05+00:00:12
  Video: PAL 16:9 (720x576) VBR, Auto Letterboxed
  Audio:
      Russian (Dolby AC3, 6 ch)

VTS_03 :
  Play Length: 00:00:01+00:00:08+00:00:01
  Video: PAL 16:9 (720x576) VBR, Auto Letterboxed
  Audio:
      Russian (Dolby AC3, 2 ch)

VTS_04 :
  Play Length: 00:00:01+00:00:33+00:00:01
  Video: PAL 4:3 (720x576) VBR
  Audio:
      Russian (Dolby AC3, 2 ch)

* Menus Information *

VIDEO_TS Menu
Video:
      NTSC 4:3 (720x480) VBR
      Auto Pan&Scan, Auto Letterboxed
Russian Language Unit :
      Title Menu

VTS_01 Menu
Video:
      PAL 16:9 (720x576) VBR
      Auto Letterboxed
Audio:
      Not specified (Dolby AC3, 2 ch)
Russian Language Unit :
      Root Menu

VTS_02 Menu
Video:
      NTSC 4:3 (720x480) VBR
      Auto Pan&Scan, Auto Letterboxed
Language Unit :
      Subpicture Menu
      Angle menu
Language Unit :
      Subpicture Menu
      Angle menu
Language Unit :
      Subpicture Menu
      Angle menu
Language Unit :
      Subpicture Menu
      Angle menu
Language Unit :
      Subpicture Menu
      Angle menu

VTS_03 Menu
Video:
      NTSC 4:3 (720x480) VBR
      Auto Pan&Scan, Auto Letterboxed
Language Unit :
      Subpicture Menu
      Angle menu
Language Unit :

Language Unit :
      Root Menu
      Chapter (PTT) Menu
Language Unit :

Language Unit :
      Root Menu
      Chapter (PTT) Menu

VTS_04 Menu
Video:
      NTSC 4:3 (720x480) VBR
      Auto Pan&Scan, Auto Letterboxed
Language Unit :
      Subpicture Menu
      Angle menu
Language Unit :
      Subpicture Menu
      Angle menu
Language Unit :
      Subpicture Menu
      Angle menu
Language Unit :
      Subpicture Menu
      Angle menu
Language Unit :
      Subpicture Menu
      Angle menu

MI

Код: выделить все
Format                         : MPEG-PS
File size                      : 1 024 MiB
Duration                       : 16mn 40s
Overall bit rate mode          : Variable
Overall bit rate               : 8 585 Kbps

Video
ID                             : 224 (0xE0)
Format                         : MPEG Video
Format version                 : Version 2
Format profile                 : Main@Main
Format settings, BVOP          : Yes
Format settings, Matrix        : Custom
Format settings, GOP           : M=3, N=15
Duration                       : 16mn 40s
Bit rate mode                  : Variable
Bit rate                       : 7 454 Kbps
Maximum bit rate               : 8 500 Kbps
Width                          : 720 pixels
Height                         : 576 pixels
Display aspect ratio           : 16:9
Frame rate                     : 25.000 fps
Standard                       : PAL
Color space                    : YUV
Chroma subsampling             : 4:2:0
Bit depth                      : 8 bits
Scan type                      : Interlaced
Scan order                     : Top Field First
Compression mode               : Lossy
Bits/(Pixel*Frame)             : 0.719
Time code of first frame       : 01:06:46:02
Time code source               : Group of pictures header
Stream size                    : 889 MiB (87%)

Audio #1
ID                             : 189 (0xBD)-128 (0x80)
Format                         : AC-3
Format/Info                    : Audio Coding 3
Mode extension                 : CM (complete main)
Format settings, Endianness    : Big
Muxing mode                    : DVD-Video
Duration                       : 16mn 40s
Bit rate mode                  : Constant
Bit rate                       : 384 Kbps
Channel count                  : 6 channels
Channel positions              : Front: L C R, Side: L R, LFE
Sampling rate                  : 48.0 KHz
Bit depth                      : 16 bits
Compression mode               : Lossy
Delay relative to video        : -208ms
Stream size                    : 45.8 MiB (4%)

Audio #2
ID                             : 189 (0xBD)-129 (0x81)
Format                         : AC-3
Format/Info                    : Audio Coding 3
Mode extension                 : CM (complete main)
Format settings, Endianness    : Big
Muxing mode                    : DVD-Video
Duration                       : 16mn 40s
Bit rate mode                  : Constant
Bit rate                       : 192 Kbps
Channel count                  : 2 channels
Channel positions              : Front: L R
Sampling rate                  : 48.0 KHz
Bit depth                      : 16 bits
Compression mode               : Lossy
Delay relative to video        : -176ms
Stream size                    : 22.9 MiB (2%)

Audio #3
ID                             : 189 (0xBD)-130 (0x82)
Format                         : AC-3
Format/Info                    : Audio Coding 3
Mode extension                 : CM (complete main)
Format settings, Endianness    : Big
Muxing mode                    : DVD-Video
Duration                       : 16mn 40s
Bit rate mode                  : Constant
Bit rate                       : 384 Kbps
Channel count                  : 6 channels
Channel positions              : Front: L C R, Side: L R, LFE
Sampling rate                  : 48.0 KHz
Bit depth                      : 16 bits
Compression mode               : Lossy
Delay relative to video        : -208ms
Stream size                    : 45.8 MiB (4%)

Text
ID                             : 189 (0xBD)-32 (0x20)
Format                         : RLE
Format/Info                    : Run-length encoding
Muxing mode                    : DVD-Video
Duration                       : 16mn 38s
Delay relative to video        : 880ms

Menu
Скриншот меню:

Скриншоты:


Смотреть Online

http://moonwalk.cc/video/ef5af4ed923c524c/iframe
Детали торрента:
Название:Ведьмы из Сугаррамурди / Las brujas de Zugarramurdi (2013) DVD9
Дата добавления:29 Дек 2013 22:40:38
Размер:6,84 GB
Раздают:
Качают:0
Форум:Зарубежные Фильмы (DVD)

All rights reserved © 2015-2018