TORRENTS43.XYZ

Скачать Призвание (1956) SATRip


Призвание (1956) SATRip
Год выпуска: 1956
Жанр: Детский

Описание фильма:
В годы войны, потеряв семью, Алеша попадает в детский дом. Весь свой досуг мальчик посвящает музыке, чему всячески способствует воспитательница Мария Павловна. Обнаружив у Алеши исключительные способности, гастролирующий дирижер Добрыниным, усыновляет мальчика и привозит его в Москву. Добрынин очень доволен: его сын и Алеша учатся в одной музыкальной школе. Однако названный брат во многом уязвляет самолюбие Бори.
После очередного оскорбления Алеша уходит из дома и попадает в дом профессора Никольского. Вскоре в Колонном зале Дома Союзов вместе с оркестром под управлением дирижера Добрынина Алеша исполняет фортепьянный концерт. Юному музыканту аплодирует Мария Павловна, Боря и весь зал.

Режиссер: Мария Федорова
Актеры: Андрей Демьянов, Михаил Тягунов, Григорий Белов, Ада Войцик, Леонид Галлис, Марина Кузнецова

Продолжительность: 01:28:22
Качество видео: SATRip



Видеокодек: DivX 5
Битрейт видео: ~963 Kbps
Размер кадра: 512 x 384
Аудиокодек: MP3, 2 ch
Битрейт аудио: 128 Kbps

MediaInfo

prizvanie.avi
Format : AVI
Format/Info : Audio Video Interleave
File size : 696 MiB
Duration : 1h 28mn
Overall bit rate : 1 100 Kbps
Writing application : VirtualDubMod 1.5.10.2 (build 2540/release)
Writing library : VirtualDubMod build 2540/release

Video
ID : 0
Format : MPEG-4 Visual
Format settings, BVOP : 1
Format settings, QPel : No
Format settings, GMC : No warppoints
Format settings, Matrix : Default (H.263)
Muxing mode : Packed bitstream
Codec ID : DX50
Codec ID/Hint : DivX 5
Duration : 1h 28mn
Bit rate : 963 Kbps
Width : 512 pixels
Height : 384 pixels
Display aspect ratio : 5:4
Original display aspect ratio : 4:3
Frame rate : 25.000 fps
Color space : YUV
Chroma subsampling : 4:2:0
Bit depth : 8 bits
Scan type : Progressive
Compression mode : Lossy
Bits/(Pixel*Frame) : 0.196
Stream size : 608 MiB (87%)
Writing library : DivX 6.0.0 (UTC 2005-06-15)

Audio
ID : 1
Format : MPEG Audio
Format version : Version 1
Format profile : Layer 3
Mode : Joint stereo
Mode extension : MS Stereo
Codec ID : 55
Codec ID/Hint : MP3
Duration : 1h 28mn
Bit rate mode : Constant
Bit rate : 128 Kbps
Channel count : 2 channels
Sampling rate : 48.0 KHz
Compression mode : Lossy
Stream size : 80.9 MiB (12%)
Alignment : Split accross interleaves
Interleave, duration : 40 ms (1.00 video frame)
Interleave, preload duration : 500 ms
Скриншоты:


Смотреть Online

http://moonwalk.cc/video/6c767875f9a8b19c/iframe
Детали торрента:
Название:Призвание (1956) SATRip
Дата добавления:14 Дек 2013 11:16:37
Размер:696 MB
Раздают:
Качают:0
Форум:Отечественные Фильмы для детей

All rights reserved © 2015-2018