TORRENTS43.XYZ

Скачать Гига, ангел, Снежок и другие (1989) TVRip


Гига, ангел, Снежок и другие (1989) TVRip
Год выпуска: 1989
Жанр: Семейный

Описание фильма: Взрослым - не до маленького Гиги. Лишь странный незнакомец и его смешная собачка становятся друзьями мальчика. Вместе им удается найти найти одну очень важную потерянную вещь...

Режиссер: Ирина Квирикадзе

Актеры: Гио Бадридзе (озвучание - Маргарита Корабельникова), Вано Сакварелидзе, Марина Гагнидзе, София Миндадзе, Зураб Кипшидзе, Георгий Пипинашвили, Гурам Хурцилава, Шота Мшвениерадзе, Резо Чхиквишвили, Сосо Гогичайшвили, Реваз Таварткиладзе, Владимир Меквабишвили

Продолжительность: 00:49:58
Качество видео: TVRip



Видеокодек: DivX 5
Битрейт видео: ~1227 Кбит/сек
Размер кадра: 512x384
Аудиокодек: MP3, 1 ch, 96,0 Кбит/сек

MediaInfo:

Общее
Полное имя : E:\Интересно\!!!Конкурс детский\2Этап\!\Гига, ангел, Снежок и другие\Гига, ангел, Снежок и другие (1989) TVRip.avi
Формат : AVI
Формат/Информация : Audio Video Interleave
Размер файла : 476 Мбайт
Продолжительность : 49 м.
Общий поток : 1333 Кбит/сек
Библиотека кодирования : VirtualDub build 24415/release

Видео
Идентификатор : 0
Формат : MPEG-4 Visual
Параметр BVOP формата : 1
Параметр QPel формата : Нет
Параметр GMC формата : Без точки перехода
Параметр матрицы формата : Default (H.263)
Режим смешивания : Сжатый битовый поток
Идентификатор кодека : DX50
Идентификатор кодека/Подсказка : DivX 5
Продолжительность : 49 м.
Битрейт : 1227 Кбит/сек
Ширина : 512 пикселей
Высота : 384 пикселя
Соотношение сторон : 4:3
Частота кадров : 25,000 кадров/сек
Цветовое пространство : YUV
Субдискретизация насыщенности : 4:2:0
Битовая глубина : 8 бит
Тип развёртки : Прогрессивная
Метод сжатия : С потерями
Бит/(Пиксели*Кадры) : 0.250
Размер потока : 439 Мбайт (92%)
Библиотека кодирования : DivX 6.2.1 (UTC 2006-04)

Аудио
Идентификатор : 1
Формат : MPEG Audio
Версия формата : Version 1
Профиль формата : Layer 3
Идентификатор кодека : 55
Идентификатор кодека/Подсказка : MP3
Продолжительность : 49 м.
Вид битрейта : Постоянный
Битрейт : 96,0 Кбит/сек
Каналы : 1 канал
Частота : 48,0 КГц
Метод сжатия : С потерями
Размер потока : 34,3 Мбайт (7%)
Выравнивание : Разделение по промежуткам
Продолжительность промежутка : 40 мс. (1,00 видеокадр)
Время предзагрузки промежутка : 500 мс.
Скриншоты:








Детали торрента:
Название:Гига, ангел, Снежок и другие (1989) TVRip
Дата добавления:09 Дек 2013 17:42:56
Размер:476 MB
Раздают:
Качают:0
Форум:Отечественные Фильмы для детей

All rights reserved © 2015-2018