TORRENTS43.XYZ

Скачать Dias de Blues - Dias de Blues (1972) Reissue 1973 [FLAC 2.0 24/48|tracks (Vinyl-Rip)]<Blues-Rock>


Dias de Blues - Dias de Blues (1972) Reissue 1973
Жанр: Blues - Rock
Origin: Montevideo/Uruguay
Год выпуска диска: 1972/1973
Страна производитель диска: Argentina
Label: De La Planta
Catalog#: XT 80054
Аудио кодек: FLAC
Тип рипа: tracks
Битрейт аудио: lossless
Продолжительность: 00:38:07
Спасибо: zibbik
Треклист:
Lado 1:
01. Amasijando los blues (6:09)
02. Dame tu sonrisa loco (2:29)
03. No podran conmigo (2:24)
04. Cada hombre es un camino (7:51)
Lado 2:
01. Estan desubicados (3:30)
02. Esto es nuestro (2:13)
03. Vuela (4:04)
04. Toda tu vida (9:27)
Band:
- Daniel Bertolone (guitar, vocals)
- Jorge Barral (bass, vocals)
- Jorge Graf (drums)

Тех. информация:


Класс состояния винила: M
Устройство воспроизведения: SONY PS515, Sumiko Pearl
Предварительный усилитель: Marantz PM7001KI встроенный.
АЦП: Realtek AC'97 audio.ALC850
Программа-оцифровщик: Sound Forge 9.0
Обработка: Разрезка на треки (Sound Forge 9.0). Сжатие foobar 2000 (flac-1.1.4b).
Формат записи (Bit/kHz): 24/48
Формат раздачи (Bit/kHz): 24/48

MI:

Код:

Общее
Полное имя                               : D:\TRACKER\Dias De Blues - Dias De Blues (1972) [LP]\01 Amasijando los blues.flac
Формат                                   : FLAC
Формат/Информация                        : Free Lossless Audio Codec
Размер файла                             : 73,3 Мбайт
Продолжительность                        : 6 м. 8 с.
Режим общего битрейта                    : Переменный
Общий поток                              : 1668 Кбит/сек

Аудио
Формат                                   : FLAC
Формат/Информация                        : Free Lossless Audio Codec
Продолжительность                        : 6 м. 8 с.
Вид битрейта                             : Переменный
Битрейт                                  : 1668 Кбит/сек
Каналы                                   : 2 канала
Частота                                  : 48,0 КГц
Битовая глубина                          : 24 бит
Размер потока                            : 73,3 Мбайт (100%)
Библиотека кодирования                   : libFLAC 1.2.1 (UTC 2007-09-17)

Общее
Полное имя                               : D:\TRACKER\Dias De Blues - Dias De Blues (1972) [LP]\02 Dame tu sonrisa loco.flac
Формат                                   : FLAC
Формат/Информация                        : Free Lossless Audio Codec
Размер файла                             : 28,6 Мбайт
Продолжительность                        : 2 м. 29 с.
Режим общего битрейта                    : Переменный
Общий поток                              : 1607 Кбит/сек

Аудио
Формат                                   : FLAC
Формат/Информация                        : Free Lossless Audio Codec
Продолжительность                        : 2 м. 29 с.
Вид битрейта                             : Переменный
Битрейт                                  : 1606 Кбит/сек
Каналы                                   : 2 канала
Частота                                  : 48,0 КГц
Битовая глубина                          : 24 бит
Размер потока                            : 28,6 Мбайт (100%)
Библиотека кодирования                   : libFLAC 1.2.1 (UTC 2007-09-17)

Общее
Полное имя                               : D:\TRACKER\Dias De Blues - Dias De Blues (1972) [LP]\03 No podran conmigo.flac
Формат                                   : FLAC
Формат/Информация                        : Free Lossless Audio Codec
Размер файла                             : 28,6 Мбайт
Продолжительность                        : 2 м. 23 с.
Режим общего битрейта                    : Переменный
Общий поток                              : 1668 Кбит/сек

Аудио
Формат                                   : FLAC
Формат/Информация                        : Free Lossless Audio Codec
Продолжительность                        : 2 м. 23 с.
Вид битрейта                             : Переменный
Битрейт                                  : 1668 Кбит/сек
Каналы                                   : 2 канала
Частота                                  : 48,0 КГц
Битовая глубина                          : 24 бит
Размер потока                            : 28,6 Мбайт (100%)
Библиотека кодирования                   : libFLAC 1.2.1 (UTC 2007-09-17)

Общее
Полное имя                               : D:\TRACKER\Dias De Blues - Dias De Blues (1972) [LP]\04 Cada hombre es un camino.flac
Формат                                   : FLAC
Формат/Информация                        : Free Lossless Audio Codec
Размер файла                             : 91,2 Мбайт
Продолжительность                        : 7 м. 51 с.
Режим общего битрейта                    : Переменный
Общий поток                              : 1624 Кбит/сек

Аудио
Формат                                   : FLAC
Формат/Информация                        : Free Lossless Audio Codec
Продолжительность                        : 7 м. 51 с.
Вид битрейта                             : Переменный
Битрейт                                  : 1624 Кбит/сек
Каналы                                   : 2 канала
Частота                                  : 48,0 КГц
Битовая глубина                          : 24 бит
Размер потока                            : 91,2 Мбайт (100%)
Библиотека кодирования                   : libFLAC 1.2.1 (UTC 2007-09-17)

Общее
Полное имя                               : D:\TRACKER\Dias De Blues - Dias De Blues (1972) [LP]\05 Estan desubicados.flac
Формат                                   : FLAC
Формат/Информация                        : Free Lossless Audio Codec
Размер файла                             : 41,8 Мбайт
Продолжительность                        : 3 м. 30 с.
Режим общего битрейта                    : Переменный
Общий поток                              : 1669 Кбит/сек

Аудио
Формат                                   : FLAC
Формат/Информация                        : Free Lossless Audio Codec
Продолжительность                        : 3 м. 30 с.
Вид битрейта                             : Переменный
Битрейт                                  : 1669 Кбит/сек
Каналы                                   : 2 канала
Частота                                  : 48,0 КГц
Битовая глубина                          : 24 бит
Размер потока                            : 41,8 Мбайт (100%)
Библиотека кодирования                   : libFLAC 1.2.1 (UTC 2007-09-17)

Общее
Полное имя                               : D:\TRACKER\Dias De Blues - Dias De Blues (1972) [LP]\06 Esto es nuestro.flac
Формат                                   : FLAC
Формат/Информация                        : Free Lossless Audio Codec
Размер файла                             : 25,3 Мбайт
Продолжительность                        : 2 м. 13 с.
Режим общего битрейта                    : Переменный
Общий поток                              : 1595 Кбит/сек

Аудио
Формат                                   : FLAC
Формат/Информация                        : Free Lossless Audio Codec
Продолжительность                        : 2 м. 13 с.
Вид битрейта                             : Переменный
Битрейт                                  : 1594 Кбит/сек
Каналы                                   : 2 канала
Частота                                  : 48,0 КГц
Битовая глубина                          : 24 бит
Размер потока                            : 25,3 Мбайт (100%)
Библиотека кодирования                   : libFLAC 1.2.1 (UTC 2007-09-17)

Общее
Полное имя                               : D:\TRACKER\Dias De Blues - Dias De Blues (1972) [LP]\07 Vuela.flac
Формат                                   : FLAC
Формат/Информация                        : Free Lossless Audio Codec
Размер файла                             : 47,8 Мбайт
Продолжительность                        : 4 м. 3 с.
Режим общего битрейта                    : Переменный
Общий поток                              : 1647 Кбит/сек

Аудио
Формат                                   : FLAC
Формат/Информация                        : Free Lossless Audio Codec
Продолжительность                        : 4 м. 3 с.
Вид битрейта                             : Переменный
Битрейт                                  : 1647 Кбит/сек
Каналы                                   : 2 канала
Частота                                  : 48,0 КГц
Битовая глубина                          : 24 бит
Размер потока                            : 47,8 Мбайт (100%)
Библиотека кодирования                   : libFLAC 1.2.1 (UTC 2007-09-17)

Общее
Полное имя                               : D:\TRACKER\Dias De Blues - Dias De Blues (1972) [LP]\08 Toda tu vida.flac
Формат                                   : FLAC
Формат/Информация                        : Free Lossless Audio Codec
Размер файла                             : 108 Мбайт
Продолжительность                        : 9 м. 26 с.
Режим общего битрейта                    : Переменный
Общий поток                              : 1595 Кбит/сек

Аудио
Формат                                   : FLAC
Формат/Информация                        : Free Lossless Audio Codec
Продолжительность                        : 9 м. 26 с.
Вид битрейта                             : Переменный
Битрейт                                  : 1595 Кбит/сек
Каналы                                   : 2 канала
Частота                                  : 48,0 КГц
Битовая глубина                          : 24 бит
Размер потока                            : 108 Мбайт (100%)
Библиотека кодирования                   : libFLAC 1.2.1 (UTC 2007-09-17)

Спектр/АЧХ:

Covers:


RateYourMusic
Детали торрента:
Название:Dias de Blues - Dias de Blues (1972) Reissue 1973 [FLAC 2.0 24/48|tracks (Vinyl-Rip)]<Blues-Rock>
Дата добавления:05 Дек 2013 08:44:37
Размер:449 MB
Раздают:1
Качают:0
Форум:Vinyl-Rip и Hand-Made

All rights reserved © 2015-2018