TORRENTS43.XYZ

Скачать Alasdair Roberts & Friends - A Wonder Working Stone (2013) [FLAC|Lossless]<Folk Rock, Acoustic, Scottish Folk>


Alasdair Roberts & Friends - A Wonder Working Stone (2013)
Год: 2013
Страна-производитель диска: USA
Издатель (лейбл): Drag City Records
Номер по каталогу #: DC534
Жанр: Folk Rock, Acoustic, Scottish Folk
Продолжительность: 01:07:34
Кодек: FLAC (*.flac)
Битрейт: Lossless
Тип рипа: tracks+.cue
Спасибо: Ready.zp
Шотландский фолк исполнитель. Выпустил несколько альбомов под именем Appendix Out, а после в 2001 году с альбома The Night продвигается под своим именем As Alasdair Roberts. Робертс родился в Швабии, Германия, сын бывшего фолк гитариста (партнера Дуги Маклина ), Alan Roberts его немецкой жены Annegret. Вырос в Kilmahog, деревушке недалеко от небольшого городка Callander, в центральной Шотландии, где он начал играть на гитаре и писать музыку.
Треклист:
01. The Merry Wake 06:16
02. The Year Of The Burning 05:43
03. Fusion Of Horizons 05:52
04. The Wheels Of The World/
The Conundrum 09:37
05. The End Of Breeding 08:06
06. Song Composed In December/
The Bluebell Polka/
Rap Y Clyceau Glas 06:24
07. Brother Seed 05:51
08. Gave The Green Blessing 05:36
09. Scandal And Trance/
We Shall Walk Through The Streets Of The City 07:41
10. The Laverock In The Blackthorn/
Oganaich An Oir Fhuilt Bhuide/
Niel Gow's Lament For His Second Wife 06:22

Отчёт ЕАС:

Код:

Exact Audio Copy V1.0 beta 3 from 29. August 2011

EAC extraction logfile from 19. January 2013, 19:00

Alasdair Roberts & Friends / A Wonder Working Stone

Used drive  : HL-DT-STDVDRAM GP40LB10   Adapter: 1  ID: 0

Read mode               : Secure
Utilize accurate stream : Yes
Defeat audio cache      : Yes
Make use of C2 pointers : No

Read offset correction                      : 6
Overread into Lead-In and Lead-Out          : No
Fill up missing offset samples with silence : Yes
Delete leading and trailing silent blocks   : No
Null samples used in CRC calculations       : Yes
Used interface                              : Native Win32 interface for Win NT & 2000
Gap handling                                : Appended to previous track

Used output format              : User Defined Encoder
Selected bitrate                : 1024 kBit/s
Quality                         : High
Add ID3 tag                     : No
Command line compressor         : C:\Program Files (x86)\Exact Audio Copy\FLAC\FLAC.EXE
Additional command line options : -8 -V -T "ARTIST=%artist%" -T "TITLE=%title%" -T "ALBUM=%albumtitle%" -T "DATE=%year%" -T "TRACKNUMBER=%tracknr%" -T "GENRE=%genre%" -T "PERFORMER=%albuminterpret%" -T "COMPOSER=%composer%" %haslyrics%--tag-from-file=LYRICS="%lyricsfile%"%haslyrics% -T "ALBUMARTIST=%albumartist%" -T "DISCNUMBER=%cdnumber%" -T "TOTALDISCS=%totalcds%" -T "TOTALTRACKS=%numtracks%" -T "COMMENT=%comment%" %source% -o %dest%

TOC of the extracted CD

     Track |   Start  |  Length  | Start sector | End sector
    ---------------------------------------------------------
        1  |  0:00.00 |  6:15.74 |         0    |    28198
        2  |  6:15.74 |  5:43.67 |     28199    |    53990
        3  | 11:59.66 |  5:52.68 |     53991    |    80458
        4  | 17:52.59 |  9:37.59 |     80459    |   123792
        5  | 27:30.43 |  8:06.58 |    123793    |   160300
        6  | 35:37.26 |  6:24.42 |    160301    |   189142
        7  | 42:01.68 |  5:51.06 |    189143    |   215473
        8  | 47:52.74 |  5:36.10 |    215474    |   240683
        9  | 53:29.09 |  7:41.41 |    240684    |   275299
       10  | 61:10.50 |  6:22.19 |    275300    |   303968

Track  1

     Filename I:\Music4\Alasdair Roberts & Friends - A Wonder Working Stone (2013) FLAC\01 - The Merry Wake.wav

     Pre-gap length  0:00:02.00

     Peak level 96.1 %
     Extraction speed 1.2 X
     Track quality 100.0 %
     Test CRC A48D4DE7
     Copy CRC A48D4DE7
     Track not present in AccurateRip database
     Copy OK

Track  2

     Filename I:\Music4\Alasdair Roberts & Friends - A Wonder Working Stone (2013) FLAC\02 - The Year of the Burning.wav

     Peak level 95.4 %
     Extraction speed 1.4 X
     Track quality 100.0 %
     Test CRC 8CDD41FE
     Copy CRC 8CDD41FE
     Track not present in AccurateRip database
     Copy OK

Track  3

     Filename I:\Music4\Alasdair Roberts & Friends - A Wonder Working Stone (2013) FLAC\03 - Fusion of Horizons.wav

     Peak level 95.5 %
     Extraction speed 1.4 X
     Track quality 99.9 %
     Test CRC D592C403
     Copy CRC D592C403
     Track not present in AccurateRip database
     Copy OK

Track  4

     Filename I:\Music4\Alasdair Roberts & Friends - A Wonder Working Stone (2013) FLAC\04 - The Wheels of the World,The Conundrum.wav

     Pre-gap length  0:00:02.22

     Peak level 95.8 %
     Extraction speed 1.8 X
     Track quality 100.0 %
     Test CRC 21667128
     Copy CRC 21667128
     Track not present in AccurateRip database
     Copy OK

Track  5

     Filename I:\Music4\Alasdair Roberts & Friends - A Wonder Working Stone (2013) FLAC\05 - The End of Breeding.wav

     Pre-gap length  0:00:02.53

     Peak level 95.6 %
     Extraction speed 2.0 X
     Track quality 100.0 %
     Test CRC 4FD445F6
     Copy CRC 4FD445F6
     Track not present in AccurateRip database
     Copy OK

Track  6

     Filename I:\Music4\Alasdair Roberts & Friends - A Wonder Working Stone (2013) FLAC\06 - Song Composed in December,The Bluebell Polka,Rap Y Clyceau Glas.wav

     Pre-gap length  0:00:02.07

     Peak level 94.4 %
     Extraction speed 2.1 X
     Track quality 100.0 %
     Test CRC 43F4B6A1
     Copy CRC 43F4B6A1
     Track not present in AccurateRip database
     Copy OK

Track  7

     Filename I:\Music4\Alasdair Roberts & Friends - A Wonder Working Stone (2013) FLAC\07 - Brother Seed.wav

     Peak level 94.2 %
     Extraction speed 2.2 X
     Track quality 100.0 %
     Test CRC 73CBC1B3
     Copy CRC 73CBC1B3
     Track not present in AccurateRip database
     Copy OK

Track  8

     Filename I:\Music4\Alasdair Roberts & Friends - A Wonder Working Stone (2013) FLAC\08 - Gave the Green Blessing.wav

     Pre-gap length  0:00:02.12

     Peak level 95.1 %
     Extraction speed 2.3 X
     Track quality 100.0 %
     Test CRC 5A8E5A6D
     Copy CRC 5A8E5A6D
     Track not present in AccurateRip database
     Copy OK

Track  9

     Filename I:\Music4\Alasdair Roberts & Friends - A Wonder Working Stone (2013) FLAC\09 - Scandal and Trance,We Shall Walk Through the Streets of the City.wav

     Pre-gap length  0:00:03.18

     Peak level 95.2 %
     Extraction speed 2.5 X
     Track quality 100.0 %
     Test CRC 76DFE08C
     Copy CRC 76DFE08C
     Track not present in AccurateRip database
     Copy OK

Track 10

     Filename I:\Music4\Alasdair Roberts & Friends - A Wonder Working Stone (2013) FLAC\10 - The Laverock in the Blackthorn,Oganaich An Oir-Fhuilt Bhuide,Niel Gow's Lament for His Second Wife.wav

     Pre-gap length  0:00:01.74

     Peak level 94.2 %
     Extraction speed 2.5 X
     Track quality 100.0 %
     Test CRC 84B9E0B1
     Copy CRC 84B9E0B1
     Track not present in AccurateRip database
     Copy OK

None of the tracks are present in the AccurateRip database

No errors occurred

End of status report

==== Log checksum 0D1E58164BBD7E9A89C2F9C5FCBF1DA5CCF30E8A13EF25082CBE60A63C1D7C04 ====

Отчёт auCDtect Task manager:

Код:

-----------------------

DON'T MODIFY THIS FILE

-----------------------

PERFORMER: auCDtect Task Manager, ver. 1.5.1RC4 build 1.5.1.5
Copyright (c) 2008-2010 y-soft. All rights reserved
http://y-soft.org

ANALYZER: auCDtect: CD records authenticity detector, version 0.8.2
Copyright (c) 2004 Oleg Berngardt. All rights reserved.
Copyright (c) 2004 Alexander Djourik. All rights reserved.

FILE: 10 - The Laverock in the Blackthorn,Oganaich An Oir-Fhuilt Bhuide,Niel Gow's Lament for His Second Wife.flac
  Size: 41091318 Hash: 40355B557E177250B16CB8A3D0A88152 Accuracy: -m8
  Conclusion: CDDA 100%
  Signature: 98AD3DFDBE6D2D4203ADDDDEE9C4436E9645014A
FILE: 09 - Scandal and Trance,We Shall Walk Through the Streets of the City.flac
  Size: 55110863 Hash: 6660B66727A146360B7C1E3EED998F8A Accuracy: -m8
  Conclusion: CDDA 100%
  Signature: A7AB85AB33CED8B1B7E4A30DC45615A2F43274AB
FILE: 08 - Gave the Green Blessing.flac
  Size: 32489448 Hash: DFD88A02C300E01D34E656DB3483EEA1 Accuracy: -m8
  Conclusion: CDDA 100%
  Signature: 3FD67956F14C178F58EE15EB5BC9CFA3AD2A0125
FILE: 07 - Brother Seed.flac
  Size: 34038073 Hash: A5584C51ABBE7F92721793F1302DF70F Accuracy: -m8
  Conclusion: CDDA 100%
  Signature: 50EF15098F32480F514A34831D5C035A409ACBE6
FILE: 06 - Song Composed in December,The Bluebell Polka,Rap Y Clyceau Glas.flac
  Size: 44740771 Hash: 48DF7F9E265F52B0A699196D11735BE6 Accuracy: -m8
  Conclusion: CDDA 100%
  Signature: 291F6D20D7AD4A6339ABCD8A58A3160D2FF33E6E
FILE: 05 - The End of Breeding.flac
  Size: 50968152 Hash: 81CC6D3C73AA426BDF465DDFA695B53F Accuracy: -m8
  Conclusion: CDDA 100%
  Signature: 617D2C125EB0272324630B0379EEC88F6DA15D56
FILE: 04 - The Wheels of the World,The Conundrum.flac
  Size: 67315527 Hash: 88B09184FD6D10024BC947B6776F563D Accuracy: -m8
  Conclusion: CDDA 100%
  Signature: 782925130FE0FDD157592BACD3BBBE2573895C5A
FILE: 03 - Fusion of Horizons.flac
  Size: 42632869 Hash: 1D2F3288737EFFF5A2E8EC5E733BDD09 Accuracy: -m8
  Conclusion: CDDA 100%
  Signature: 80C116AADE71001E56FE80F0666988EBC926AEBD
FILE: 02 - The Year of the Burning.flac
  Size: 41629469 Hash: 2EF1702D5B20C2E3CEB88947E34E599B Accuracy: -m8
  Conclusion: CDDA 100%
  Signature: 25D43C47BE559CD1B100C91D2551D4297AF30670
FILE: 01 - The Merry Wake.flac
  Size: 42490446 Hash: 2A4DC824CDFAC3801CF27E9FF8D75CE8 Accuracy: -m8
  Conclusion: CDDA 100%
  Signature: 1D7C8E3DBA42EBFBBB05C079C2B31B49A2E25D18

Содержание индексной карты .CUE:

Код:


REM DATE 2013
REM DISCID 800FD40A
REM COMMENT "ExactAudioCopy v1.0b3"
FILE "01 - The Merry Wake.wav" WAVE
  TRACK 01 AUDIO
    INDEX 01 00:00:00
FILE "02 - The Year of the Burning.wav" WAVE
  TRACK 02 AUDIO
    INDEX 01 00:00:00
FILE "03 - Fusion of Horizons.wav" WAVE
  TRACK 03 AUDIO
    INDEX 01 00:00:00
  TRACK 04 AUDIO
    INDEX 00 05:50:46
FILE "04 - The Wheels of the World,The Conundrum.wav" WAVE
    INDEX 01 00:00:00
  TRACK 05 AUDIO
    INDEX 00 09:35:06
FILE "05 - The End of Breeding.wav" WAVE
    INDEX 01 00:00:00
  TRACK 06 AUDIO
    INDEX 00 08:04:51
FILE "06 - Song Composed in December,The Bluebell Polka,Rap Y Clyceau Glas.wav" WAVE
    INDEX 01 00:00:00
FILE "07 - Brother Seed.wav" WAVE
  TRACK 07 AUDIO
    INDEX 01 00:00:00
  TRACK 08 AUDIO
    INDEX 00 05:48:69
FILE "08 - Gave the Green Blessing.wav" WAVE
    INDEX 01 00:00:00
  TRACK 09 AUDIO
    INDEX 00 05:32:67
FILE "09 - Scandal and Trance,We Shall Walk Through the Streets of the City.wav" WAVE
    INDEX 01 00:00:00
  TRACK 10 AUDIO
    INDEX 00 07:39:42
FILE "10 - The Laverock in the Blackthorn,Oganaich An Oir-Fhuilt Bhuide,Niel Gow's Lament for His Second Wife.wav" WAVE
    INDEX 01 00:00:00

Детали торрента:
Название:Alasdair Roberts & Friends - A Wonder Working Stone (2013) [FLAC|Lossless]<Folk Rock, Acoustic, Scottish Folk>
Дата добавления:17 Окт 2013 07:54:55
Размер:432 MB
Раздают:
Качают:0
Форум:Архив Музыки

All rights reserved © 2015-2018