TORRENTS43.XYZ

Скачать Идеи из будущего. Серия 21 / Ideas of the Future (2012) SATRip


Идеи из будущего. Серия 21 / Ideas of the Future (2012) SATRip
Режиссер / Телекомпания: Наука 2.0

Русское название: Идеи из будущего
Оригинальное название: Ideas of the Future
Год выпуска: 2012
Жанр: Документальный, научно-познавательный
Выпущено: США, Indigo Films

Описание:
Можно ли пойти туда, неведомо куда; найти то, неведомо что? Можно, если делать это по-научному!

Режиссёр: Джош Розен

В выпуске: 21. Альтернативные виды энергии. Как вырабатывается энергия.

Озвучено: Видео-фильм ТВ

Перевод: Одноголосый закадровый

Продолжительность: ~ 00:26:37

Видеокодек: XVID
Битрейт видео: ~1700 kb/s
Размер кадра: 720 x 400
Качество видео: SATRip
Аудиокодек: AC-3, 2ch.
Битрейт аудио: 192 kb/s

MediaInfo

Формат : AVI
Формат/Информация : Audio Video Interleave
Размер файла : 362 Мбайт
Продолжительность : 26 м.
Общий поток : 1901 Кбит/сек
Режиссёр : SATRip by Thunder
Программа кодирования : VirtualDubMod 1.5.10.3 | www.virtualdub-fr.org || (build 2550/release)
Формат оригинала/Имя : Documentary

Видео
Идентификатор : 0
Формат : MPEG-4 Visual
Профиль формата : Advanced Simple@L5
Параметр BVOP формата : 2
Параметр QPel формата : Нет
Параметр GMC формата : Без точки перехода
Параметр матрицы формата : Default (H.263)
Идентификатор кодека : XVID
Идентификатор кодека/Подсказка : XviD
Продолжительность : 26 м.
Битрейт : 1700 Кбит/сек
Ширина : 720 пикселей
Высота : 400 пикселей
Соотношение сторон : 16:9
Частота кадров : 25,000 кадров/сек
Цветовое пространство : YUV
Субдискретизация насыщенности : 4:2:0
Битовая глубина : 8 бит
Тип развёртки : Прогрессивная
Метод сжатия : С потерями
Бит/(Пиксели*Кадры) : 0.236
Размер потока : 324 Мбайт (89%)
Библиотека кодирования : XviD 1.2.1 (UTC 2008-12-04)

Аудио
Идентификатор : 1
Формат : AC-3
Формат/Информация : Audio Coding 3
Расширение режима : CM (complete main)
Идентификатор кодека : 2000
Продолжительность : 26 м.
Вид битрейта : Постоянный
Битрейт : 192 Кбит/сек
Каналы : 2 канала
Расположение каналов : Front: L R
Частота : 48,0 КГц
Битовая глубина : 16 бит
Метод сжатия : С потерями
Размер потока : 36,6 Мбайт (10%)
Выравнивание : Разделение по промежуткам
Продолжительность промежутка : 40 мс. (1,00 видеокадр)
Время предзагрузки промежутка : 500 мс.
Скриншоты:
Детали торрента:
Название:Идеи из будущего. Серия 21 / Ideas of the Future (2012) SATRip
Дата добавления:28 Авг 2013 17:21:58
Размер:362 MB
Раздают:1
Качают:0
Форум:Интересно обо всем

All rights reserved © 2015-2018