TORRENTS43.XYZ

Скачать La Bionda - The Collection (1994) [FLAC|Lossless|image + .cue]<Italo Disco>


La Bionda - The Collection (1994)
Год: 1994
Жанр: Italo Disco
Лейбл: Ariola
Каталог #: 74321 18171 2
Продолжительность: 01:03:08

Кодек: FLAC
Тип рипа: image + .cue
Битрейт: Lossless

Треклист:
01. One For You, One For Me (3:36)
02. There For Me (3:27)
03. I Wanna Be Your Lover (3:16)
04. Bandido (4:26)
05. A Moment Of Sunshine (4:03)
06. Sandstorm (5:50)
07. High Energy (4:09)
08. You're So Fine (3:56)
09. Black And White (4:06)
10. Deserts Of Mars (5:35)
11. Baby Make Love (3:40)
12. Johnie Don't Go Away (4:29)
13. Hey Woman (4:25)
14. Moonlight Palais (4:15)
15. Will She Or Won't She (3:55)

Источник (релизер): Pashketan

Отчёт ЕАС:

Код:

Exact Audio Copy V1.0 beta 3 from 29. August 2011

Отчёт EAC об извлечении, выполненном 22. июля 2013, 19:38

La Bionda / The Collection

Дисковод: PIONEER DVD-RW  DVR-216D   Adapter: 0  ID: 1

Режим чтения                 : Достоверность
Использование точного потока : Да
Отключение кэша аудио        : Да
Использование указателей C2  : Нет

Коррекция смещения при чтении                     : 96
Способность читать области Lead-in и Lead-out     : Нет
Заполнение пропущенных сэмплов тишиной            : Да
Удаление блоков с тишиной в начале и конце        : Нет
При вычислениях CRC использовались нулевые сэмплы : Да
Интерфейс                                         : Встроенный Win32-интерфейс для Win NT/2000

Выходной формат          : Пользовательский кодировщик
Выбранный битрейт        : 768 kBit/s
Качество                 : Высокий
Добавление ID3-тега      : Нет
Утилита сжатия           : C:\Program Files (x86)\Exact Audio Copy\FLAC\FLAC.EXE
Дополнительные параметры : -6 -V -T "ARTIST=%artist%" -T "TITLE=%title%" -T "ALBUM=%albumtitle%" -T "DATE=%year%" -T "TRACKNUMBER=%tracknr%" -T "GENRE=%genre%" -T "COMMENT=%comment%" -T "BAND=%albuminterpret%" -T "ALBUMARTIST=%albuminterpret%" -T "COMPOSER=%composer%" %haslyrics%--tag-from-file=LYRICS="%lyricsfile%"%haslyrics% -T "DISCNUMBER=%cdnumber%" -T "TOTALDISCS=%totalcds%" -T "TOTALTRACKS=%numtracks%" %hascover%--picture="%coverfile%"%hascover% %source% -o %dest%

TOC извлечённого CD

     Трек |   Старт  | Длительность | Начальный сектор | Конечный сектор
    ---------------------------------------------------------------------
       1  |  0:01.00 |    3:35.47   |          75      |      16246
       2  |  3:36.47 |    3:27.33   |       16247      |      31804
       3  |  7:04.05 |    3:15.52   |       31805      |      46481
       4  | 10:19.57 |    4:26.18   |       46482      |      66449
       5  | 14:46.00 |    4:03.02   |       66450      |      84676
       6  | 18:49.02 |    5:50.33   |       84677      |     110959
       7  | 24:39.35 |    4:08.45   |      110960      |     129604
       8  | 28:48.05 |    3:56.00   |      129605      |     147304
       9  | 32:44.05 |    4:05.45   |      147305      |     165724
      10  | 36:49.50 |    5:35.35   |      165725      |     190884
      11  | 42:25.10 |    3:39.55   |      190885      |     207364
      12  | 46:04.65 |    4:28.60   |      207365      |     227524
      13  | 50:33.50 |    4:25.27   |      227525      |     247426
      14  | 54:59.02 |    4:14.53   |      247427      |     266529
      15  | 59:13.55 |    3:55.30   |      266530      |     284184

Характеристики диапазона извлечения и сообщения об ошибках

Выбранный диапазон

     Имя файла C:\Users\PASHA\Desktop\La Bionda - The Collection.wav

     Пиковый уровень 100.0 %
     Скорость извлечения 1.6 X
     Качество диапазона 99.8 %
     CRC теста CC5210E5
     CRC копии CC5210E5
     Копирование... OK

Ошибок не произошло

AccurateRip: сводка

Трек  1  отсутствует в базе данных
Трек  2  отсутствует в базе данных
Трек  3  отсутствует в базе данных
Трек  4  отсутствует в базе данных
Трек  5  отсутствует в базе данных
Трек  6  отсутствует в базе данных
Трек  7  отсутствует в базе данных
Трек  8  отсутствует в базе данных
Трек  9  отсутствует в базе данных
Трек 10  отсутствует в базе данных
Трек 11  отсутствует в базе данных
Трек 12  отсутствует в базе данных
Трек 13  отсутствует в базе данных
Трек 14  отсутствует в базе данных
Трек 15  отсутствует в базе данных

Ни одного трека нет в базе AccurateRip

Конец отчёта

---- CUETools DB Plugin V2.1.3

[CTDB TOCID: av.fm901Z60Y_mmxnlaXHxZAve4-] disk not present in database, Submit result: discs with pregaps not supported in this protocol version

==== Контрольная сумма отчёта 4EDC69E5C0D07D71DD14E6329FBB2E44CD6612889E2110DACBB8F81C4670A890 ====

Отчёт auCDtect Task manager:

Код:

-----------------------

DON'T MODIFY THIS FILE

-----------------------

PERFORMER: auCDtect Task Manager, ver. 1.6.0 RC1 build 1.6.0.1
Copyright (c) 2008-2010 y-soft. All rights reserved
http://y-soft.org

ANALYZER: auCDtect: CD records authenticity detector, version 0.8.2
Copyright (c) 2004 Oleg Berngardt. All rights reserved.
Copyright (c) 2004 Alexander Djourik. All rights reserved.

FILE: La Bionda - The Collection.flac
  Size: 418131850 Hash: 07BBA1A4704A978D0E5C1F270CD30308 Accuracy: -m0
  Conclusion: CDDA 100%
  Signature: 5AFB1B9BB61AFCC4D4D308E1084D3873A75E2D5F

Содержание индексной карты (.CUE)

Код:

REM GENRE Disco
REM DATE 1994
REM DISCID C10ECC0F
REM COMMENT "ExactAudioCopy v1.0b3"
PERFORMER "La Bionda"
TITLE "The Collection"
FILE "La Bionda - The Collection.flac" WAVE
  TRACK 01 AUDIO
    TITLE "One For You, One For Me"
    PERFORMER "La Bionda"
    INDEX 00 00:00:00
    INDEX 01 00:01:00
  TRACK 02 AUDIO
    TITLE "There For Me"
    PERFORMER "La Bionda"
    INDEX 00 03:35:12
    INDEX 01 03:36:47
  TRACK 03 AUDIO
    TITLE "I Wanna Be Your Lover"
    PERFORMER "La Bionda"
    INDEX 00 07:02:45
    INDEX 01 07:04:05
  TRACK 04 AUDIO
    TITLE "Bandido"
    PERFORMER "La Bionda"
    INDEX 00 10:18:22
    INDEX 01 10:19:57
  TRACK 05 AUDIO
    TITLE "A Moment Of Sunshine"
    PERFORMER "La Bionda"
    INDEX 00 14:44:40
    INDEX 01 14:46:00
  TRACK 06 AUDIO
    TITLE "Sandstorm"
    PERFORMER "La Bionda"
    INDEX 00 18:47:42
    INDEX 01 18:49:02
  TRACK 07 AUDIO
    TITLE "High Energy"
    PERFORMER "La Bionda"
    INDEX 00 24:38:00
    INDEX 01 24:39:35
  TRACK 08 AUDIO
    TITLE "You're So Fine"
    PERFORMER "La Bionda"
    INDEX 00 28:44:45
    INDEX 01 28:48:05
  TRACK 09 AUDIO
    TITLE "Black And White"
    PERFORMER "La Bionda"
    INDEX 00 32:42:46
    INDEX 01 32:44:05
  TRACK 10 AUDIO
    TITLE "Deserts Of Mars"
    PERFORMER "La Bionda"
    INDEX 00 36:48:15
    INDEX 01 36:49:50
  TRACK 11 AUDIO
    TITLE "Baby Make Love"
    PERFORMER "La Bionda"
    INDEX 00 42:23:50
    INDEX 01 42:25:10
  TRACK 12 AUDIO
    TITLE "Johnie Don't Go Away"
    PERFORMER "La Bionda"
    INDEX 00 46:03:30
    INDEX 01 46:04:65
  TRACK 13 AUDIO
    TITLE "Hey Woman"
    PERFORMER "La Bionda"
    INDEX 00 50:32:15
    INDEX 01 50:33:50
  TRACK 14 AUDIO
    TITLE "Moonlight Palais"
    PERFORMER "La Bionda"
    INDEX 00 54:57:42
    INDEX 01 54:59:02
  TRACK 15 AUDIO
    TITLE "Will She Or Won't She"
    PERFORMER "La Bionda"
    INDEX 00 59:12:20
    INDEX 01 59:13:55

Сверка с АккуратРип

Код:

[CUETools log; Date: 22.07.2013 20:02:09; Version: 2.1.4]
Pregap length 00:01:00.
[CTDB TOCID: av.fm901Z60Y_mmxnlaXHxZAve4-] found.
Track | CTDB Status
  1   | (1/1) Accurately ripped
  2   | (1/1) Accurately ripped
  3   | (1/1) Accurately ripped
  4   | (1/1) Accurately ripped
  5   | (1/1) Accurately ripped
  6   | (1/1) Accurately ripped
  7   | (1/1) Accurately ripped
  8   | (1/1) Accurately ripped
  9   | (1/1) Accurately ripped
 10   | (1/1) Accurately ripped
 11   | (1/1) Accurately ripped
 12   | (1/1) Accurately ripped
 13   | (1/1) Accurately ripped
 14   | (1/1) Accurately ripped
 15   | (1/1) Accurately ripped
[AccurateRip ID: 0021ec90-01852f47-c10ecc0f] disk not present in database.

Track Peak [ CRC32  ] [W/O NULL] [  LOG   ]
 --  100,0 [CC5210E5] [57CEA544]   CRC32
 01   99,0 [0553E63D] [180BD8D5]
 02   99,0 [661B205E] [AD123C3F]
 03   99,0 [4B22752A] [63E6D504]
 04   99,0 [C035063A] [8D98EE80]
 05   99,0 [42E7C041] [D4A11B3C]
 06   99,2 [76DDA8B6] [99CF1DAA]
 07   99,0 [BC85D70C] [61EE7591]
 08   99,0 [F9FC0360] [7B875907]
 09   99,0 [841A50A1] [231BF548]
 10   99,9 [D9F3EF92] [F0963B1E]
 11   99,0 [B805BBA8] [9A1E0027]
 12  100,0 [77BFBA64] [34D50629]
 13   99,0 [BC891155] [7278EE4A]
 14   99,0 [317EBBDC] [84A0E648]
 15   99,0 [01E6ABB4] [7C40D9C0]

YouTube YouTube


Поглощение/вытеснение
Только с согласия релизера

Pashketan
Детали торрента:
Название:La Bionda - The Collection (1994) [FLAC|Lossless|image + .cue]<Italo Disco>
Дата добавления:22 Июл 2013 19:11:51
Размер:399 MB
Раздают:
Качают:0
Форум:Disco, Italo-Disco, Euro-Disco, Hi-NRG (Lossless)

All rights reserved © 2015-2018