TORRENTS43.XYZ

Скачать Флирт фитнес + Танцы со шестом / Flirty Girl Fitness + Pole Dance (2008-2009) DVDRip


Флирт фитнес + Танцы со шестом / Flirty Girl Fitness + Pole Dance (2008-2009) DVDRip
Русское название: Флирт фитнес Танцы со шестом
Оригинальное название: Flirty Girl Fitness + Pole Dance
Год выпуска: 2008-2009
Качество видео: DVDRip

Описание фильма:
Сборник Flirty Girl Fitness (Sexy Fitness )
Созданная Керри и Коленом Криста , Фитнес программа для Кокетливой Девчонки - забавный и захватывающий способ стать стройной и открыть Вашу внутреннюю примадонну.
Содержание видео курса: разминка показывает классические и сексуальные движения под хорошую музыку, превращая их в настоящий фитнес, который улучшит Вашу сердечно сосудистую систему и откорректирует Вашу фигуру. В конце вы соедините танец и фитнес в единое целое - интересное и увлекательное. Это новый уровень Женского фитнеса! Так как он не только корректирует Вашу фигуру, но и показывает Вам некоторые очень сексуальные танцевальные движения. Данный комплекс уделяет внимание растяжке, - ведь пластика это очень важно! После этого комплекса упражнений Вы почувствуете себя примадонной .
Пришло время заменить рутину тренировок на забавный, сексуальный, танцевальный фитнес. Упражнения со стулом приспособлены для того, чтобы помочь Вам сжечь жирок и откорректировать фигуру. Эти упражнения превращают простой стул в многофункциональный тренажер. Данный видео курс прорабатывает все части тела от головы до пят.

Содержание:

Flirty Girl Fitness - Abs and Booty

Описание: Abs and Booty - силовая тренировка, направленная на проработку пресса и ягодиц. Для тренировки нужны: коврик, гантели (опционально).

Размер кадра:720x480
Кадров в сек: 29.97fp
Видео-кодек: DivX 6
Битрейт видео:1498Kbps
Аудио#1: MP3 48000Hz stereo 128kbps 2 channels

Отчёт MediaInfo

Общее
Полное имя : D:\Done\Flirty Girl Fitness\Flirty Girl Fitness - Abs and Booty.avi
Формат : AVI
Формат/Информация : Audio Video Interleave
Размер файла : 530 Мбайт
Продолжительность : 45 м.
Общий поток : 1640 Кбит/сек

Видео
Идентификатор : 0
Формат : MPEG-4 Visual
Профиль формата : Simple@L1
Параметр BVOP формата : Нет
Параметр QPel формата : Нет
Параметр GMC формата : Без точки перехода
Параметр матрицы формата : Default (H.263)
Идентификатор кодека : DIVX
Идентификатор кодека/Информация : Project Mayo
Идентификатор кодека/Подсказка : DivX 4
Продолжительность : 45 м.
Продолжительность оригинала : 45 м.
Битрейт : 1498 Кбит/сек
Ширина : 720 пикселей
Высота : 480 пикселей
Соотношение сторон : 3:2
Частота кадров : 29,970 кадров/сек
Стандарт вещания : NTSC
Цветовое пространство : YUV
Субдискретизация насыщенности : 4:2:0
Битовая глубина : 8 бит
Тип развёртки : Прогрессивная
Метод сжатия : С потерями
Бит/(Пиксели*Кадры) : 0.145
Размер потока : 484 Мбайт (91%)
Библиотека кодирования : avc2.0.11.1110

Аудио
Идентификатор : 1
Формат : MPEG Audio
Версия формата : Version 1
Профиль формата : Layer 3
Режим : Joint stereo
Расширение режима : MS Stereo
Идентификатор кодека : 55
Идентификатор кодека/Подсказка : MP3
Продолжительность : 45 м.
Вид битрейта : Постоянный
Битрейт : 128 Кбит/сек
Каналы : 2 канала
Частота : 48,0 КГц
Метод сжатия : С потерями
Размер потока : 41,3 Мбайт (8%)
Выравнивание : Соединение по промежуткам
Продолжительность промежутка : 24 мс. (0,72 видеокадр)
Библиотека кодирования : LAME3.96.1
Скриншоты:

Flirty Girl Fitness - Body Blast

Описание: Body Blast - силовая тренировка, направленная на проработку всего тела. Для тренировки нужны: коврик, эспандер.

Размер кадра:720x480
Кадров в сек: 29.97fp
Видео-кодек: DivX 6
Битрейт видео:1501Kbps
Аудио#1: MP3 48000Hz stereo 128kbps 2 channels

Отчёт MediaInfo

Общее
Полное имя : D:\Done\Flirty Girl Fitness\Flirty Girl Fitness - Body Blast.avi
Формат : AVI
Формат/Информация : Audio Video Interleave
Размер файла : 522 Мбайт
Продолжительность : 44 м.
Общий поток : 1643 Кбит/сек

Видео
Идентификатор : 0
Формат : MPEG-4 Visual
Профиль формата : Simple@L1
Параметр BVOP формата : Нет
Параметр QPel формата : Нет
Параметр GMC формата : Без точки перехода
Параметр матрицы формата : Default (H.263)
Идентификатор кодека : DIVX
Идентификатор кодека/Информация : Project Mayo
Идентификатор кодека/Подсказка : DivX 4
Продолжительность : 44 м.
Продолжительность оригинала : 44 м.
Битрейт : 1501 Кбит/сек
Ширина : 720 пикселей
Высота : 480 пикселей
Соотношение сторон : 3:2
Частота кадров : 29,970 кадров/сек
Стандарт вещания : NTSC
Цветовое пространство : YUV
Субдискретизация насыщенности : 4:2:0
Битовая глубина : 8 бит
Тип развёртки : Прогрессивная
Метод сжатия : С потерями
Бит/(Пиксели*Кадры) : 0.145
Размер потока : 477 Мбайт (91%)
Библиотека кодирования : avc2.0.11.1110

Аудио
Идентификатор : 1
Формат : MPEG Audio
Версия формата : Version 1
Профиль формата : Layer 3
Режим : Joint stereo
Расширение режима : MS Stereo
Идентификатор кодека : 55
Идентификатор кодека/Подсказка : MP3
Продолжительность : 44 м.
Вид битрейта : Постоянный
Битрейт : 128 Кбит/сек
Каналы : 2 канала
Частота : 48,0 КГц
Метод сжатия : С потерями
Размер потока : 40,6 Мбайт (8%)
Выравнивание : Соединение по промежуткам
Продолжительность промежутка : 24 мс. (0,72 видеокадр)
Скриншоты:

Flirty Girl Fitness - Booty Beat II

Описание: Body Blast - силовая тренировка, направленная на проработку всего тела. Для тренировки нужны: коврик, эспандер.

Размер кадра:512x384
Кадров в сек: 23.98fps
Видео-кодек: Xvid
Битрейт видео:1935Kbps
Аудио#1: MP3 44100Hz stereo 128kbps 2 channels

Отчёт MediaInfo

Общее
Полное имя : D:\Done\Flirty Girl Fitness\Flirty Girl Fitness - Booty Beat II.avi
Формат : AVI
Формат/Информация : Audio Video Interleave
Размер файла : 579 Мбайт
Продолжительность : 39 м.
Общий поток : 2070 Кбит/сек

Видео
Идентификатор : 0
Формат : MPEG-4 Visual
Профиль формата : Simple@L3
Параметр BVOP формата : Нет
Параметр QPel формата : Нет
Параметр GMC формата : Без точки перехода
Параметр матрицы формата : Default (H.263)
Идентификатор кодека : XVID
Идентификатор кодека/Подсказка : XviD
Продолжительность : 39 м.
Битрейт : 1935 Кбит/сек
Ширина : 512 пикселей
Высота : 384 пикселя
Соотношение сторон : 4:3
Частота кадров : 23,976 кадра/сек
Цветовое пространство : YUV
Субдискретизация насыщенности : 4:2:0
Битовая глубина : 8 бит
Тип развёртки : Прогрессивная
Метод сжатия : С потерями
Бит/(Пиксели*Кадры) : 0.410
Размер потока : 541 Мбайт (93%)
Библиотека кодирования : ZJMedia MPEG Encoder

Аудио
Идентификатор : 1
Формат : MPEG Audio
Версия формата : Version 1
Профиль формата : Layer 3
Режим : Joint stereo
Расширение режима : MS Stereo
Идентификатор кодека : 55
Идентификатор кодека/Подсказка : MP3
Продолжительность : 39 м.
Вид битрейта : Постоянный
Битрейт : 128 Кбит/сек
Каналы : 2 канала
Частота : 44,1 КГц
Метод сжатия : С потерями
Размер потока : 35,8 Мбайт (6%)
Выравнивание : Разделение по промежуткам
Продолжительность промежутка : 959 мс. (23,00 видеокадра)
Скриншоты:

Flirty Girl Fitness - Ultimate Upper Body

Описание: Ultimate Upper Body - силовая тренировка, направленная на проработку верхней части туловища и пресса. Для тренировки нужны: коврик, утяжеленные шарики (можно заменить гантелями).

Размер кадра:720x392
Кадров в сек: 29.97fps
Видео-кодек: FMP4
Битрейт видео:1935Kbps
Аудио#1: Dolby AC3 48000Hz stereo 192kbps 2 channels

Отчёт MediaInfo

Общее
Полное имя : D:\Done\Flirty Girl Fitness\Flirty Girl Fitness - Ultimate Upper Body.avi
Формат : AVI
Формат/Информация : Audio Video Interleave
Размер файла : 939 Мбайт
Продолжительность : 39 м.
Общий поток : 3292 Кбит/сек
Программа кодирования : MEncoder 2:1.0~rc2-0ubuntu17+medibuntu1
Библиотека кодирования : MPlayer
Формат оригинала : DVD ripped by acidrip.sf.net

Видео
Идентификатор : 0
Формат : MPEG-4 Visual
Профиль формата : Simple@L1
Параметр BVOP формата : Нет
Параметр QPel формата : Нет
Параметр GMC формата : Без точки перехода
Параметр матрицы формата : Default (H.263)
Идентификатор кодека : FMP4
Продолжительность : 39 м.
Битрейт : 3093 Кбит/сек
Ширина : 720 пикселей
Высота : 392 пикселя
Соотношение сторон : 1,85:1
Частота кадров : 29,970 кадров/сек
Цветовое пространство : YUV
Субдискретизация насыщенности : 4:2:0
Битовая глубина : 8 бит
Тип развёртки : Прогрессивная
Метод сжатия : С потерями
Бит/(Пиксели*Кадры) : 0.366
Размер потока : 882 Мбайт (94%)
Библиотека кодирования : Lavc51.44.0

Аудио
Идентификатор : 1
Формат : AC-3
Формат/Информация : Audio Coding 3
Расширение режима : CM (complete main)
Параметр Endianness формата : Big
Идентификатор кодека : 2000
Продолжительность : 39 м.
Вид битрейта : Постоянный
Битрейт : 192 Кбит/сек
Каналы : 2 канала
Расположение каналов : Front: L R
Частота : 48,0 КГц
Битовая глубина : 16 бит
Метод сжатия : С потерями
Размер потока : 54,8 Мбайт (6%)
Выравнивание : Разделение по промежуткам
Продолжительность промежутка : 500 мс. (14,98 видеокадров)
Время предзагрузки промежутка : 500 мс.
Скриншоты:

Flirty Girl Fitness - Video Vixen

Описание: Video Vixen - еще одна танцевальная кардио-тренировка с разучиванием сексуальных танцев из видеоклипов.

Размер кадра: 512x384
Кадров в сек: 23.98fps
Видео-кодек: Xvid
Битрейт видео:1858Kbps
Аудио#1: MPEG Audio Layer 3 44100Hz stereo 128kbps 2 channels

Отчёт MediaInfo

Общее
Полное имя : D:\Done\Flirty Girl Fitness\Flirty Girl Fitness - Video Vixen.avi
Формат : AVI
Формат/Информация : Audio Video Interleave
Размер файла : 583 Мбайт
Продолжительность : 40 м.
Общий поток : 1992 Кбит/сек

Видео
Идентификатор : 0
Формат : MPEG-4 Visual
Профиль формата : Simple@L3
Параметр BVOP формата : Нет
Параметр QPel формата : Нет
Параметр GMC формата : Без точки перехода
Параметр матрицы формата : Default (H.263)
Идентификатор кодека : XVID
Идентификатор кодека/Подсказка : XviD
Продолжительность : 40 м.
Битрейт : 1858 Кбит/сек
Ширина : 512 пикселей
Высота : 384 пикселя
Соотношение сторон : 4:3
Частота кадров : 23,976 кадра/сек
Цветовое пространство : YUV
Субдискретизация насыщенности : 4:2:0
Битовая глубина : 8 бит
Тип развёртки : Прогрессивная
Метод сжатия : С потерями
Бит/(Пиксели*Кадры) : 0.394
Размер потока : 544 Мбайт (93%)
Библиотека кодирования : ZJMedia MPEG Encoder

Аудио
Идентификатор : 1
Формат : MPEG Audio
Версия формата : Version 1
Профиль формата : Layer 3
Режим : Joint stereo
Расширение режима : MS Stereo
Идентификатор кодека : 55
Идентификатор кодека/Подсказка : MP3
Продолжительность : 40 м.
Вид битрейта : Постоянный
Битрейт : 128 Кбит/сек
Каналы : 2 канала
Частота : 44,1 КГц
Метод сжатия : С потерями
Размер потока : 37,5 Мбайт (6%)
Выравнивание : Разделение по промежуткам
Продолжительность промежутка : 959 мс. (23,00 видеокадра)
Скриншоты:

Flirty Girls Beginner - Pole Dance

Описание: Pole Dance - танцевальная тренировка с разучиванием сексуальных танцев на шесте и рядом с ним.

Размер кадра: 640 x 480
Кадров в сек: 23.98fps
Видео-кодек: XviD
Битрейт видео: 1 553 Kbps
Аудио#1: MPEG-1 Audio layer 3, 128 Kbps, CBR, 48000 Hz, 2 channels

Отчёт MediaInfo

Общее
Полное имя : D:\Done\Flirty Girl Fitness\Flirty Girls Beginner Pole Dance.avi
Формат : AVI
Формат/Информация : Audio Video Interleave
Размер файла : 394 Мбайт
Продолжительность : 32 м.
Общий поток : 1693 Кбит/сек

Видео
Идентификатор : 0
Формат : MPEG-4 Visual
Профиль формата : Advanced Simple@L5
Параметр BVOP формата : 2
Параметр QPel формата : Нет
Параметр GMC формата : Без точки перехода
Параметр матрицы формата : Default (H.263)
Идентификатор кодека : XVID
Идентификатор кодека/Подсказка : XviD
Продолжительность : 32 м.
Битрейт : 1553 Кбит/сек
Ширина : 640 пикселей
Высота : 480 пикселей
Соотношение сторон : 4:3
Частота кадров : 29,970 кадров/сек
Цветовое пространство : YUV
Субдискретизация насыщенности : 4:2:0
Битовая глубина : 8 бит
Тип развёртки : Прогрессивная
Метод сжатия : С потерями
Бит/(Пиксели*Кадры) : 0.169
Размер потока : 361 Мбайт (92%)
Библиотека кодирования : XviD 1.1.2 (UTC 2006-11-01)

Аудио
Идентификатор : 1
Формат : MPEG Audio
Версия формата : Version 1
Профиль формата : Layer 3
Режим : Joint stereo
Расширение режима : MS Stereo
Идентификатор кодека : 55
Идентификатор кодека/Подсказка : MP3
Продолжительность : 32 м.
Продолжительность оригинала : 32 м.
Вид битрейта : Постоянный
Битрейт : 128 Кбит/сек
Каналы : 2 канала
Частота : 48,0 КГц
Метод сжатия : С потерями
Размер потока : 29,8 Мбайт (8%)
Выравнивание : Соединение по промежуткам
Продолжительность промежутка : 33 мс. (1,00 видеокадр)
Скриншоты:

Flirty Girls Beginner - Chair Fi

Описание: Chair Fi - тренировка с использованием стула.

Размер кадра: 712x480
Кадров в сек: 29.9fps
Видео-кодек: MPEG
Битрейт видео: 2055 Kbps
Аудио#1: MPEG-1 Audio layer 3, 256.00 Kbps, CBR, 48000 Hz, 2 channels

Отчёт MediaInfo

Общее
Полное имя : D:\Done\Flirty Girl Fitness\Flirty Girl Fitness - Chair Fit.avi
Формат : AVI
Формат/Информация : Audio Video Interleave
Размер файла : 763 Мбайт
Продолжительность : 51 м.
Общий поток : 2070 Кбит/сек

Видео
Идентификатор : 0
Формат : AVC
Формат/Информация : Advanced Video Codec
Профиль формата : Main@L3.0
Параметр CABAC формата : Да
Параметр ReFrames формата : 2 кадра
Идентификатор кодека : H264
Продолжительность : 51 м.
Продолжительность оригинала : 51 м.
Битрейт : 1800 Кбит/сек
Ширина : 712 пикселей
Высота : 480 пикселей
Соотношение сторон : 4:3
Частота кадров : 29,970 кадров/сек
Цветовое пространство : YUV
Субдискретизация насыщенности : 4:2:0
Битовая глубина : 8 бит
Тип развёртки : Прогрессивная
Бит/(Пиксели*Кадры) : 0.176
Размер потока : 663 Мбайт (87%)
Библиотека кодирования : x264 core 65
Настройки программы : cabac=1 / ref=2 / deblock=1:0:0 / analyse=0x1:0x111 / me=umh / subme=6 / psy_rd=1.0:0.0 / mixed_ref=0 / me_range=16 / chroma_me=1 / trellis=0 / 8x8dct=0 / cqm=0 / deadzone=21,11 / chroma_qp_offset=-2 / threads=3 / nr=0 / decimate=1 / mbaff=0 / bframes=2 / b_pyramid=0 / b_adapt=1 / b_bias=0 / direct=1 / wpredb=0 / keyint=300 / keyint_min=30 / scenecut=40(pre) / rc=2pass / bitrate=1800 / ratetol=1.0 / qcomp=0.60 / qpmin=10 / qpmax=51 / qpstep=4 / cplxblur=20.0 / qblur=0.5 / ip_ratio=1.40 / pb_ratio=1.30 / aq=1:1.00
Основные цвета : BT.601 NTSC
Характеристики трансфера : BT.709
Коэффициенты матрицы : BT.601

Аудио
Идентификатор : 1
Формат : MPEG Audio
Версия формата : Version 1
Профиль формата : Layer 3
Режим : Joint stereo
Расширение режима : MS Stereo
Идентификатор кодека : 55
Идентификатор кодека/Подсказка : MP3
Продолжительность : 51 м.
Продолжительность оригинала : 51 м.
Вид битрейта : Постоянный
Битрейт : 256 Кбит/сек
Каналы : 2 канала
Частота : 48,0 КГц
Метод сжатия : С потерями
Размер потока : 94,3 Мбайт (12%)
Выравнивание : Разделение по промежуткам
Продолжительность промежутка : 24 мс. (0,72 видеокадр)
Время предзагрузки промежутка : 909 мс.
Скриншоты:
Скриншоты:

Детали торрента:
Название:Флирт фитнес + Танцы со шестом / Flirty Girl Fitness + Pole Dance (2008-2009) DVDRip
Дата добавления:15 Июн 2013 15:37:28
Размер:4,21 GB
Раздают:
Качают:1
Форум:Гимнастика, Бодибилдинг, Красота тела

All rights reserved © 2015-2018