TORRENTS43.XYZ

Скачать Ottawan - 2 Альбома (1980,1981) [FLAC 2.0 24/192|tracks (Vinyl-Rip)]<Disco>


Ottawan - 2 Альбома (1980,1981)
Лейбл: Carrere
Год: 1980,1981
Жанр: Disco
Продолжительность: 01:06:47

Кодек: FLAC 2.0
Битрейт: 24/192
Тип рипа: track
Автор оцифровки: r_krassilnikov
Ottawan — французский диско-дуэт, ставший популярным в начале 1980-х годов.
Запись первого сингла - «D.I.S.C.O.» была произведена в октябре 1979-го года в столице Канады, Оттаве, откуда и произошло название коллектива.

1980 - Ottawan

Image
Cостояние винила: EX

Трек лист:
01. D.I.S.C.O.
02. Hello Rio!
03. Shalala Song
04. Tant Que Durera La Nuit
05. Help, Get Me Some Help!
06. You're O.K.
07. Comme Aux U.S.A.
08. D.I.S.C.O. (French version)

Продолжительность: 00:34:23

MediaInfo:

Код:
Общее
Полное имя                               : D:\TORRENT_NEW\Ottawan (LPs) [Torrents43.xyz]\1980 - Ottawan\01-D.I.S.C.O.flac
Формат                                   : FLAC
Формат/Информация                        : Free Lossless Audio Codec
Размер файла                             : 176 Мбайт
Продолжительность                        : 5 м. 3 с.
Режим общего битрейта                    : Переменный
Общий поток                              : 4882 Кбит/сек
Альбом                                   : Ottawan
Трек                                     : D.I.S.C.O.
Трек/Положение                           : 1
Трек/Всего                               : 8
Исполнитель                              : Ottawan

Аудио
Формат                                   : FLAC
Формат/Информация                        : Free Lossless Audio Codec
Продолжительность                        : 5 м. 3 с.
Вид битрейта                             : Переменный
Битрейт                                  : 4881 Кбит/сек
Каналы                                   : 2 канала
Частота                                  : 192 КГц
Битовая глубина                          : 24 бит
Размер потока                            : 176 Мбайт (100%)
Библиотека кодирования                   : libFLAC 1.2.1 (UTC 2007-09-17)

Общее
Полное имя                               : D:\TORRENT_NEW\Ottawan (LPs) [Torrents43.xyz]\1980 - Ottawan\02-Hello Rio!.flac
Формат                                   : FLAC
Формат/Информация                        : Free Lossless Audio Codec
Размер файла                             : 167 Мбайт
Продолжительность                        : 4 м. 27 с.
Режим общего битрейта                    : Переменный
Общий поток                              : 5233 Кбит/сек
Альбом                                   : Ottawan
Трек                                     : Hello Rio!
Трек/Положение                           : 2
Трек/Всего                               : 8
Исполнитель                              : Ottawan

Аудио
Формат                                   : FLAC
Формат/Информация                        : Free Lossless Audio Codec
Продолжительность                        : 4 м. 27 с.
Вид битрейта                             : Переменный
Битрейт                                  : 5232 Кбит/сек
Каналы                                   : 2 канала
Частота                                  : 192 КГц
Битовая глубина                          : 24 бит
Размер потока                            : 167 Мбайт (100%)
Библиотека кодирования                   : libFLAC 1.2.1 (UTC 2007-09-17)

Общее
Полное имя                               : D:\TORRENT_NEW\Ottawan (LPs) [Torrents43.xyz]\1980 - Ottawan\03-Shalala Song.flac
Формат                                   : FLAC
Формат/Информация                        : Free Lossless Audio Codec
Размер файла                             : 129 Мбайт
Продолжительность                        : 3 м. 40 с.
Режим общего битрейта                    : Переменный
Общий поток                              : 4890 Кбит/сек
Альбом                                   : Ottawan
Трек                                     : Shalala Song
Трек/Положение                           : 3
Трек/Всего                               : 8
Исполнитель                              : Ottawan

Аудио
Формат                                   : FLAC
Формат/Информация                        : Free Lossless Audio Codec
Продолжительность                        : 3 м. 40 с.
Вид битрейта                             : Переменный
Битрейт                                  : 4890 Кбит/сек
Каналы                                   : 2 канала
Частота                                  : 192 КГц
Битовая глубина                          : 24 бит
Размер потока                            : 129 Мбайт (100%)
Библиотека кодирования                   : libFLAC 1.2.1 (UTC 2007-09-17)

Общее
Полное имя                               : D:\TORRENT_NEW\Ottawan (LPs) [Torrents43.xyz]\1980 - Ottawan\04-Tant Que Durera La Nuit.flac
Формат                                   : FLAC
Формат/Информация                        : Free Lossless Audio Codec
Размер файла                             : 153 Мбайт
Продолжительность                        : 4 м. 18 с.
Режим общего битрейта                    : Переменный
Общий поток                              : 4953 Кбит/сек
Альбом                                   : Ottawan
Трек                                     : Tant Que Durera La Nuit
Трек/Положение                           : 4
Трек/Всего                               : 8
Исполнитель                              : Ottawan

Аудио
Формат                                   : FLAC
Формат/Информация                        : Free Lossless Audio Codec
Продолжительность                        : 4 м. 18 с.
Вид битрейта                             : Переменный
Битрейт                                  : 4952 Кбит/сек
Каналы                                   : 2 канала
Частота                                  : 192 КГц
Битовая глубина                          : 24 бит
Размер потока                            : 153 Мбайт (100%)
Библиотека кодирования                   : libFLAC 1.2.1 (UTC 2007-09-17)

Общее
Полное имя                               : D:\TORRENT_NEW\Ottawan (LPs) [Torrents43.xyz]\1980 - Ottawan\05-Help, Get Me Some Help!.flac
Формат                                   : FLAC
Формат/Информация                        : Free Lossless Audio Codec
Размер файла                             : 159 Мбайт
Продолжительность                        : 4 м. 27 с.
Режим общего битрейта                    : Переменный
Общий поток                              : 4992 Кбит/сек
Альбом                                   : Ottawan
Трек                                     : Help, Get Me Some Help!
Трек/Положение                           : 5
Трек/Всего                               : 8
Исполнитель                              : Ottawan

Аудио
Формат                                   : FLAC
Формат/Информация                        : Free Lossless Audio Codec
Продолжительность                        : 4 м. 27 с.
Вид битрейта                             : Переменный
Битрейт                                  : 4991 Кбит/сек
Каналы                                   : 2 канала
Частота                                  : 192 КГц
Битовая глубина                          : 24 бит
Размер потока                            : 159 Мбайт (100%)
Библиотека кодирования                   : libFLAC 1.2.1 (UTC 2007-09-17)

Общее
Полное имя                               : D:\TORRENT_NEW\Ottawan (LPs) [Torrents43.xyz]\1980 - Ottawan\06-You're OK.flac
Формат                                   : FLAC
Формат/Информация                        : Free Lossless Audio Codec
Размер файла                             : 178 Мбайт
Продолжительность                        : 5 м. 11 с.
Режим общего битрейта                    : Переменный
Общий поток                              : 4791 Кбит/сек
Альбом                                   : Ottawan
Трек                                     : You're OK
Трек/Положение                           : 6
Трек/Всего                               : 8
Исполнитель                              : Ottawan

Аудио
Формат                                   : FLAC
Формат/Информация                        : Free Lossless Audio Codec
Продолжительность                        : 5 м. 11 с.
Вид битрейта                             : Переменный
Битрейт                                  : 4791 Кбит/сек
Каналы                                   : 2 канала
Частота                                  : 192 КГц
Битовая глубина                          : 24 бит
Размер потока                            : 178 Мбайт (100%)
Библиотека кодирования                   : libFLAC 1.2.1 (UTC 2007-09-17)

Общее
Полное имя                               : D:\TORRENT_NEW\Ottawan (LPs) [Torrents43.xyz]\1980 - Ottawan\07-Comme Aux USA.flac
Формат                                   : FLAC
Формат/Информация                        : Free Lossless Audio Codec
Размер файла                             : 130 Мбайт
Продолжительность                        : 3 м. 36 с.
Режим общего битрейта                    : Переменный
Общий поток                              : 5040 Кбит/сек
Альбом                                   : Ottawan
Трек                                     : Comme aux USA
Трек/Положение                           : 7
Трек/Всего                               : 8
Исполнитель                              : Ottawan

Аудио
Формат                                   : FLAC
Формат/Информация                        : Free Lossless Audio Codec
Продолжительность                        : 3 м. 36 с.
Вид битрейта                             : Переменный
Битрейт                                  : 5040 Кбит/сек
Каналы                                   : 2 канала
Частота                                  : 192 КГц
Битовая глубина                          : 24 бит
Размер потока                            : 130 Мбайт (100%)
Библиотека кодирования                   : libFLAC 1.2.1 (UTC 2007-09-17)

Общее
Полное имя                               : D:\TORRENT_NEW\Ottawan (LPs) [Torrents43.xyz]\1980 - Ottawan\08-D.I.S.C.O. (french version).flac
Формат                                   : FLAC
Формат/Информация                        : Free Lossless Audio Codec
Размер файла                             : 127 Мбайт
Продолжительность                        : 3 м. 38 с.
Режим общего битрейта                    : Переменный
Общий поток                              : 4856 Кбит/сек
Альбом                                   : Ottawan
Трек                                     : D.I.S.C.O. (french version)
Трек/Положение                           : 8
Трек/Всего                               : 8
Исполнитель                              : Ottawan

Аудио
Формат                                   : FLAC
Формат/Информация                        : Free Lossless Audio Codec
Продолжительность                        : 3 м. 38 с.
Вид битрейта                             : Переменный
Битрейт                                  : 4856 Кбит/сек
Каналы                                   : 2 канала
Частота                                  : 192 КГц
Битовая глубина                          : 24 бит
Размер потока                            : 127 Мбайт (100%)
Библиотека кодирования                   : libFLAC 1.2.1 (UTC 2007-09-17)

Спектр, АЧХ:

Dynamic Range Meter:

Код:
foobar2000 1.1.11 / Dynamic Range Meter 1.1.1
log date: 2013-05-23 11:54:21

--------------------------------------------------------------------------------
Analyzed: Ottawan / Ottawan
--------------------------------------------------------------------------------

DR         Peak         RMS     Duration Track
--------------------------------------------------------------------------------
DR13      -0.31 dB   -15.52 dB      5:03 01-D.I.S.C.O.
DR14      -0.27 dB   -15.94 dB      4:27 02-Hello Rio!
DR15      -0.58 dB   -16.83 dB      3:41 03-Shalala Song
DR15      -0.77 dB   -17.22 dB      4:19 04-Tant Que Durera La Nuit
DR15      -0.09 dB   -16.54 dB      4:28 05-Help, Get Me Some Help!
DR17      -0.29 dB   -18.78 dB      5:11 06-You're OK
DR13      -0.55 dB   -15.85 dB      3:36 07-Comme aux USA
DR12      -0.55 dB   -14.97 dB      3:39 08-D.I.S.C.O. (french version)
--------------------------------------------------------------------------------

Number of tracks:  8
Official DR value: DR14

Samplerate:        192000 Hz
Channels:          2
Bits per sample:   24
Bitrate:           4856 kbps
Codec:             FLAC
================================================================================

1981 - Ottawan 2

Image
Cостояние винила: VG

Трек лист:
01. Hands Up (Give Me Your Hand)
02. Siesta For Two
03. A.I.E. Is My Song
04. Sing Along With The Juke-Box
05. Crazy Music
06. It's A Top Secret
07. Shubidube Love
08. Doudou Rumba
09. Hands Up (Instrumental)

Продолжительность: 00:32:24

MediaInfo:

Код:
Общее
Полное имя                               : D:\TORRENT_NEW\Ottawan (LPs) [Torrents43.xyz]\1981 - Ottawan 2\01-Hands Up (Give Me Your Heart).flac
Формат                                   : FLAC
Формат/Информация                        : Free Lossless Audio Codec
Размер файла                             : 172 Мбайт
Продолжительность                        : 4 м. 51 с.
Режим общего битрейта                    : Переменный
Общий поток                              : 4954 Кбит/сек
Альбом                                   : Ottawan 2
Трек                                     : Hands Up (Give Me Your Heart)
Трек/Положение                           : 1
Трек/Всего                               : 9
Исполнитель                              : Ottawan

Аудио
Формат                                   : FLAC
Формат/Информация                        : Free Lossless Audio Codec
Продолжительность                        : 4 м. 51 с.
Вид битрейта                             : Переменный
Битрейт                                  : 4954 Кбит/сек
Каналы                                   : 2 канала
Частота                                  : 192 КГц
Битовая глубина                          : 24 бит
Размер потока                            : 172 Мбайт (100%)
Библиотека кодирования                   : libFLAC 1.2.1 (UTC 2007-09-17)

Общее
Полное имя                               : D:\TORRENT_NEW\Ottawan (LPs) [Torrents43.xyz]\1981 - Ottawan 2\02-Siesta For Two.flac
Формат                                   : FLAC
Формат/Информация                        : Free Lossless Audio Codec
Размер файла                             : 142 Мбайт
Продолжительность                        : 4 м. 0 с.
Режим общего битрейта                    : Переменный
Общий поток                              : 4962 Кбит/сек
Альбом                                   : Ottawan 2
Трек                                     : Siesta For Two
Трек/Положение                           : 2
Трек/Всего                               : 9
Исполнитель                              : Ottawan

Аудио
Формат                                   : FLAC
Формат/Информация                        : Free Lossless Audio Codec
Продолжительность                        : 4 м. 0 с.
Вид битрейта                             : Переменный
Битрейт                                  : 4962 Кбит/сек
Каналы                                   : 2 канала
Частота                                  : 192 КГц
Битовая глубина                          : 24 бит
Размер потока                            : 142 Мбайт (100%)
Библиотека кодирования                   : libFLAC 1.2.1 (UTC 2007-09-17)

Общее
Полное имя                               : D:\TORRENT_NEW\Ottawan (LPs) [Torrents43.xyz]\1981 - Ottawan 2\03-A.I.E. Is My Song.flac
Формат                                   : FLAC
Формат/Информация                        : Free Lossless Audio Codec
Размер файла                             : 122 Мбайт
Продолжительность                        : 3 м. 30 с.
Режим общего битрейта                    : Переменный
Общий поток                              : 4838 Кбит/сек
Альбом                                   : Ottawan 2
Трек                                     : A.I.E. Is My Song
Трек/Положение                           : 3
Трек/Всего                               : 9
Исполнитель                              : Ottawan

Аудио
Формат                                   : FLAC
Формат/Информация                        : Free Lossless Audio Codec
Продолжительность                        : 3 м. 30 с.
Вид битрейта                             : Переменный
Битрейт                                  : 4838 Кбит/сек
Каналы                                   : 2 канала
Частота                                  : 192 КГц
Битовая глубина                          : 24 бит
Размер потока                            : 122 Мбайт (100%)
Библиотека кодирования                   : libFLAC 1.2.1 (UTC 2007-09-17)

Общее
Полное имя                               : D:\TORRENT_NEW\Ottawan (LPs) [Torrents43.xyz]\1981 - Ottawan 2\04-Sing Along With The Juke-box.flac
Формат                                   : FLAC
Формат/Информация                        : Free Lossless Audio Codec
Размер файла                             : 146 Мбайт
Продолжительность                        : 4 м. 4 с.
Режим общего битрейта                    : Переменный
Общий поток                              : 5019 Кбит/сек
Альбом                                   : Ottawan 2
Трек                                     : Sing Along With The Juke-box
Трек/Положение                           : 4
Трек/Всего                               : 9
Исполнитель                              : Ottawan

Аудио
Формат                                   : FLAC
Формат/Информация                        : Free Lossless Audio Codec
Продолжительность                        : 4 м. 4 с.
Вид битрейта                             : Переменный
Битрейт                                  : 5019 Кбит/сек
Каналы                                   : 2 канала
Частота                                  : 192 КГц
Битовая глубина                          : 24 бит
Размер потока                            : 146 Мбайт (100%)
Библиотека кодирования                   : libFLAC 1.2.1 (UTC 2007-09-17)

Общее
Полное имя                               : D:\TORRENT_NEW\Ottawan (LPs) [Torrents43.xyz]\1981 - Ottawan 2\05-Crazy Music.flac
Формат                                   : FLAC
Формат/Информация                        : Free Lossless Audio Codec
Размер файла                             : 196 Мбайт
Продолжительность                        : 5 м. 28 с.
Режим общего битрейта                    : Переменный
Общий поток                              : 5012 Кбит/сек
Альбом                                   : Ottawan 2
Трек                                     : Crazy Music
Трек/Положение                           : 5
Трек/Всего                               : 9
Исполнитель                              : Ottawan

Аудио
Формат                                   : FLAC
Формат/Информация                        : Free Lossless Audio Codec
Продолжительность                        : 5 м. 28 с.
Вид битрейта                             : Переменный
Битрейт                                  : 5011 Кбит/сек
Каналы                                   : 2 канала
Частота                                  : 192 КГц
Битовая глубина                          : 24 бит
Размер потока                            : 196 Мбайт (100%)
Библиотека кодирования                   : libFLAC 1.2.1 (UTC 2007-09-17)

Общее
Полное имя                               : D:\TORRENT_NEW\Ottawan (LPs) [Torrents43.xyz]\1981 - Ottawan 2\06-It's A Top Secret.flac
Формат                                   : FLAC
Формат/Информация                        : Free Lossless Audio Codec
Размер файла                             : 119 Мбайт
Продолжительность                        : 3 м. 17 с.
Режим общего битрейта                    : Переменный
Общий поток                              : 5054 Кбит/сек
Альбом                                   : Ottawan 2
Трек                                     : It's A Top Secret
Трек/Положение                           : 6
Трек/Всего                               : 9
Исполнитель                              : Ottawan

Аудио
Формат                                   : FLAC
Формат/Информация                        : Free Lossless Audio Codec
Продолжительность                        : 3 м. 17 с.
Вид битрейта                             : Переменный
Битрейт                                  : 5054 Кбит/сек
Каналы                                   : 2 канала
Частота                                  : 192 КГц
Битовая глубина                          : 24 бит
Размер потока                            : 119 Мбайт (100%)
Библиотека кодирования                   : libFLAC 1.2.1 (UTC 2007-09-17)

Общее
Полное имя                               : D:\TORRENT_NEW\Ottawan (LPs) [Torrents43.xyz]\1981 - Ottawan 2\07-Shubidube Love.flac
Формат                                   : FLAC
Формат/Информация                        : Free Lossless Audio Codec
Размер файла                             : 100 Мбайт
Продолжительность                        : 2 м. 51 с.
Режим общего битрейта                    : Переменный
Общий поток                              : 4928 Кбит/сек
Альбом                                   : Ottawan 2
Трек                                     : Shubidube Love
Трек/Положение                           : 7
Трек/Всего                               : 9
Исполнитель                              : Ottawan

Аудио
Формат                                   : FLAC
Формат/Информация                        : Free Lossless Audio Codec
Продолжительность                        : 2 м. 51 с.
Вид битрейта                             : Переменный
Битрейт                                  : 4928 Кбит/сек
Каналы                                   : 2 канала
Частота                                  : 192 КГц
Битовая глубина                          : 24 бит
Размер потока                            : 100 Мбайт (100%)
Библиотека кодирования                   : libFLAC 1.2.1 (UTC 2007-09-17)

Общее
Полное имя                               : D:\TORRENT_NEW\Ottawan (LPs) [Torrents43.xyz]\1981 - Ottawan 2\08-Doudou Rumba.flac
Формат                                   : FLAC
Формат/Информация                        : Free Lossless Audio Codec
Размер файла                             : 129 Мбайт
Продолжительность                        : 3 м. 34 с.
Режим общего битрейта                    : Переменный
Общий поток                              : 5068 Кбит/сек
Альбом                                   : Ottawan 2
Трек                                     : Doudou Rumba
Трек/Положение                           : 8
Трек/Всего                               : 9
Исполнитель                              : Ottawan

Аудио
Формат                                   : FLAC
Формат/Информация                        : Free Lossless Audio Codec
Продолжительность                        : 3 м. 34 с.
Вид битрейта                             : Переменный
Битрейт                                  : 5068 Кбит/сек
Каналы                                   : 2 канала
Частота                                  : 192 КГц
Битовая глубина                          : 24 бит
Размер потока                            : 129 Мбайт (100%)
Библиотека кодирования                   : libFLAC 1.2.1 (UTC 2007-09-17)

Общее
Полное имя                               : D:\TORRENT_NEW\Ottawan (LPs) [Torrents43.xyz]\1981 - Ottawan 2\09-Hands Up (Instrumental).flac
Формат                                   : FLAC
Формат/Информация                        : Free Lossless Audio Codec
Размер файла                             : 25,5 Мбайт
Продолжительность                        : 45 с.
Режим общего битрейта                    : Переменный
Общий поток                              : 4645 Кбит/сек
Альбом                                   : Ottawan 2
Трек                                     : Hands Up (Instrumental)
Трек/Положение                           : 9
Трек/Всего                               : 9
Исполнитель                              : Ottawan

Аудио
Формат                                   : FLAC
Формат/Информация                        : Free Lossless Audio Codec
Продолжительность                        : 45 с.
Вид битрейта                             : Переменный
Битрейт                                  : 4644 Кбит/сек
Каналы                                   : 2 канала
Частота                                  : 192 КГц
Битовая глубина                          : 24 бит
Размер потока                            : 25,5 Мбайт (100%)
Библиотека кодирования                   : libFLAC 1.2.1 (UTC 2007-09-17)

Спектр, АЧХ:

Dynamic Range Meter:

Код:
foobar2000 1.1.11 / Dynamic Range Meter 1.1.1
log date: 2013-05-23 11:57:58

--------------------------------------------------------------------------------
Analyzed: Ottawan / Ottawan 2
--------------------------------------------------------------------------------

DR         Peak         RMS     Duration Track
--------------------------------------------------------------------------------
DR13      -0.39 dB   -15.35 dB      4:52 01-Hands Up (Give Me Your Heart)
DR13      -1.17 dB   -16.20 dB      4:01 02-Siesta For Two
DR13      -0.23 dB   -15.66 dB      3:31 03-A.I.E. Is My Song
DR14      -0.77 dB   -16.74 dB      4:04 04-Sing Along With The Juke-box
DR14      -0.18 dB   -15.95 dB      5:28 05-Crazy Music
DR12      -1.08 dB   -14.72 dB      3:17 06-It's A Top Secret
DR13      -0.09 dB   -15.75 dB      2:51 07-Shubidube Love
DR12      -0.88 dB   -15.09 dB      3:34 08-Doudou Rumba
DR14      -0.26 dB   -18.57 dB      0:46 09-Hands Up (Instrumental)
--------------------------------------------------------------------------------

Number of tracks:  9
Official DR value: DR13

Samplerate:        192000 Hz
Channels:          2
Bits per sample:   24
Bitrate:           4644 kbps
Codec:             FLAC
================================================================================

Technical info:

Устройство воспроизведения:

Marantz TT 15S1

Головка звукоснимателя:

GRADO Prestige Gold1

Предварительный усилитель: Marantz PM 66 Special Edition
АЦП: E-MU 1212m PCIe
Программа-оцифровщик: Adobe Audition 3.0


Детали торрента:
Название:Ottawan - 2 Альбома (1980,1981) [FLAC 2.0 24/192|tracks (Vinyl-Rip)]<Disco>
Дата добавления:23 Май 2013 12:09:34
Размер:2,32 GB
Раздают:
Качают:1
Форум:Vinyl-Rip и Hand-Made

All rights reserved © 2015-2018