TORRENTS43.XYZ

Скачать Большие танцы. Крупным планом. Выпуск №2 (2013.03.12) SATRip


Большие танцы. Крупным планом. Выпуск №2 (2013.03.12) SATRip
Режиссер / Телекомпания: Россия
Русское название: Большие танцы
Год выпуска: 2013
Жанр: ТВ - шоу

Описание:
Цикл передач посвящен съемкам телевизионного шоу Большие танцы. В каждом выпуске организаторы проекты будет рассказывать нам, как проходят съемки данного шоу.

Телеканал "Россия" и создатели проекта "Битва хоров" объявляют о старте нового танцевального проекта "Большие танцы".
8 танцевальных команд по 100 человек из 8 городов приедут в Москву, чтобы выиграть главный приз и завоевать для родного города звание танцевальной столицы России! В конкурсе участвуют: Москва, Санкт-Петербург, Казань, Самара, Саратов, Нижний Новгород, Волгоград, Ростов-на-Дону.
О проекте
В шоу примут участие только те, кто по-настоящему любит и умеет танцевать. В восьми крупнейших городах страны будут отобраны команды по сто человек. После подготовки и репетиций они отправятся на генеральное танцевальное сражение в Москву.
Под руководством главного хореографа участники проекта подготовят современные, динамичные, масштабные номера. Зрителей ждет потрясающее зрелище: ВОСЕМЬ недель ВОСЕМЬ команд по СТО человек будут танцевать hip-hop, breakdance, housedance, r&b, rock'n'roll, jazzdance!
По субботам команды двух городов, которые определит жребий, будут встречаться в батле, состоящем из трех этапов. И каждый раз одна команда будет покидать проект. Оценки командам будет выставлять жюри, но их судьба зависит и от телезрителей. С помощью смс-голосования и телефонных звонков любой житель России сможет проголосовать за город, чье выступление понравилось больше всего.
Команда:
Главный хореограф-постановщик проекта Пол Домейн (работал с Джорджем Майклом, Тиной Тернер, Шер, Кайли Миноуг; главный постановщик в Европе популярных шоу Voice, "Танцы со звездами", X-factor, World Music Awards и др.). Он лично выберет по одному хореографу из каждого города, поможет им отобрать участников для шоу.

Ведущий: Федор Бондарчук, Альбина Джанабаева, Наталья Стефаненко

Продолжительность: ~ 00:13:28

Видеокодек: XVID
Битрейт видео: ~1812 kb/s
Размер кадра: 720 x 464
Качество видео: SATRip
Аудиокодек: MP3, 2ch.
Битрейт аудио: 128 kb/s

MediaInfo

Формат : AVI
Формат/Информация : Audio Video Interleave
Размер файла : 188 Мбайт
Продолжительность : 13 м.
Общий поток : 1950 Кбит/сек
Программа кодирования : VirtualDubMod 1.5.10.2 (build 2542/release)
Библиотека кодирования : VirtualDubMod build 2542/release

Видео
Идентификатор : 0
Формат : MPEG-4 Visual
Профиль формата : Advanced Simple@L5
Параметр BVOP формата : 2
Параметр QPel формата : Нет
Параметр GMC формата : Без точки перехода
Параметр матрицы формата : Default (MPEG)
Идентификатор кодека : XVID
Идентификатор кодека/Подсказка : XviD
Продолжительность : 13 м.
Битрейт : 1812 Кбит/сек
Ширина : 720 пикселей
Высота : 464 пикселя
Соотношение сторон : 1,552
Частота кадров : 25,000 кадров/сек
Цветовое пространство : YUV
Субдискретизация насыщенности : 4:2:0
Битовая глубина : 8 бит
Тип развёртки : Прогрессивная
Метод сжатия : С потерями
Бит/(Пиксели*Кадры) : 0.217
Размер потока : 175 Мбайт (93%)
Библиотека кодирования : XviD 1.2.1 (UTC 2008-12-04)

Аудио
Идентификатор : 1
Формат : MPEG Audio
Версия формата : Version 1
Профиль формата : Layer 3
Режим : Joint stereo
Расширение режима : MS Stereo
Идентификатор кодека : 55
Идентификатор кодека/Подсказка : MP3
Продолжительность : 13 м.
Вид битрейта : Постоянный
Битрейт : 128 Кбит/сек
Каналы : 2 канала
Частота : 48,0 КГц
Метод сжатия : С потерями
Размер потока : 12,3 Мбайт (7%)
Выравнивание : Разделение по промежуткам
Продолжительность промежутка : 40 мс. (1,00 видеокадр)
Время предзагрузки промежутка : 500 мс.
Скриншоты:
Детали торрента:
Название:Большие танцы. Крупным планом. Выпуск №2 (2013.03.12) SATRip
Дата добавления:14 Мар 2013 22:25:02
Размер:188 MB
Раздают:
Качают:0
Форум:Телешоу

All rights reserved © 2015-2018