TORRENTS43.XYZ

Скачать VA - Диско 90 с Авторадио. Русский сборник (2013) [MP3|256 кб/с]<Pop, Dance>


VA - Диско 90 с Авторадио. Русский сборник (2013)
Год: 2013
Жанр:Pop, Dance
Продолжительность: 06:14:10

Кодек: MP3
Битрейт: 256 кб/с
Тип битрейта: CBR

Трек лист:
001. Божья Коровка - Камушек
002. Кристина Corp. - Вернись
003. Профессор Лебединский - Капельки
004. Ольга Орлова - Выше Неба
005. Маленький Принц - Я Не Знаю Зачем Мне Ты
006. Hi-Fi - А Мы Любили
007. Пропаганда - Мелом
008. Руки Вверх - Лишь О Тебе Мечтая
009. Анка - А Ты Не Летчик
010. Звери - Районы-Кварталы
011. Турбомода - Платье Белое
012. Стрелки И Борис Моисеев - Sex-Xl Revolution
013. Мишель - У Тебя Нет Сердца
014. О. Зарубина - На Теплоходе Музыка Играет
015. Евгений Осин - Таня + Володя

Продолжение трек листа

016. Цветы - Мы Желаем Счастья Вам
017. Владимир Асимов - Самоволочка
018. Сергей Минаев - Ломбаба
019. Краски - Не Получается
020. Андрей Губин - Солнышко
021. Кристина Орбакайте - Перелетная Птица
022. С. Чумаков - Жених
023. Верка Сердючка - Я Рождена Для Любви
024. В.Сташевский - Глаза Чайного Цвета
025. Лада Дэнс - Один Лишь Раз
026. Мумий Тролль - Утекай
027. Восток - До Встречи
028. Горячие Головы - Бананы Лопала Бомба
029. Верасы - Малиновки Заслыша Голоса
030. Иракли - Лондон-Париж
031. Президент И Амазонка - Детская Плясовая
032. Ласковый Май - Лето
033. Демо - Я Делаю Вдох
034. Руки Вверх! - Ай-Яй-Яй
035. Стрелки - Я Хорошая
036. Сергей Минаев - 22 Притопа
037. Краски - Раз-Два-Три-Четыре
038. Натали - Ветер С Моря Дул
039. Андрей Губин - Облака
040. Блестящие - Апельсиновая Песня
041. Ариэль - Порушка Параня
042. Фанки - Только Тебе
043. А. Серов - Мадонна
044. Чичерина - Жара
045. Кристина Corp. - С Января До Января
046. Кар-Мэн - Лондон Гуд-Бай
047. Дискотека Авария - На Острие Атаки
048. Браво - Дорога В Облака
049. Н. Ветлицкая - Посмотри В Глаза
050. Нэнси - Голубоглазая
051. Валерия - Не Обижай Меня
052. Премьер-Министр - Девочка С Севера
053. Турбомода - Позови
054. К. Никольский - Я Сам Из Тех
055. Евгений Осин - Плачет Девушка В Автомате
056. Дюна И Наталья Сенчукова - Милый Мой Ботаник
057. Лицей - Край, Далёкий Край
058. Мальчишник - Последний Раз
059. Ариана - Под Испанским Небом
060. В. Маркин - Сиреневый Туман
061. Reвольvers - Котенок
062. Юра Шатунов - Седая Ночь
063. Reflex - Падали Звезды
064. Света - Целуемся
065. Технология - Странные Танцы
066. Жасмин - Перепишу Любовь
067. К.Метов - Вспоминай Меня
068. Анжелика Варум - Зимняя Вишня
069. О. Капуро - Живи Родник
070. Кар-Мэн - Чио Чио Сан
071. Hi-Fi - Седьмой Лепесток
072. Ляпис Трубецкой & Karapuzikee - Любовь Повернулась Ко Мне Задом (Karapuzikee Mix)
073. Ляпис Трубецкой - Яблони
074. Шура - Не Верь Слезам
075. A'studio - Нелюбимая
076. Кристина Орбакайте И Авраам Руссо - Просто Любить Тебя
077. Руки Вверх - Танцуй
078. Отпетые Мошенники - А У Реки
079. Евгения Малахова - Мама
080. Линда - Мало Огня
081. А-Студио - Джулия
082. Вирус - Нежное Солнышко
083. Мурат Насыров - Мальчик Хочет В Тамбов
084. Сладкий Сон - На Белом Покрывале Января
085. И. Саруханов - Заглянул В Почтовый Ящик
086. Иванушки Int. - Я Люблю
087. Небо - Обещала
088. К. Никольский - Музыкант
089. Мираж - Я Не Хочу
090. Loris Feat. Джимми - Миражи (Remix)
091. Лена Перова - Шум Дождя
092. Сплин - Орбит Без Сахара
093. Восток - Миражи
094. А. Вески - Остров Любви
095. Дюна - Привет С Большого Бодуна
096. Веселые Ребята - Уходило Лето
097. Звери - Все, Что Тебя Касается
098. Нэнси - Девушка Мечты
099. Алексин И Спам - Красивая (Remake)
100. Игорек - Подождем

MI

Общее
Полное имя : C:\Users\Андрей\Desktop\Раздачи\Disco90_Avtoradio_rus\001. Божья Коровка - Камушек.mp3
Формат : MPEG Audio
Размер файла : 9,56 Мбайт
Продолжительность : 5 м. 13 с.
Режим общего битрейта : Постоянный
Общий поток : 256 Кбит/сек
Альбом : Äèñêîòåêà 90õ ñ Àâòîðàäèî
Трек : Êàìóøåê
Трек/Положение : 001
Трек/Всего : 100
Исполнитель : Áîæüÿ Êîðîâêà
Жанр : Disco 90
Дата записи : 2013
Библиотека кодирования : LAME3.92

Аудио
Формат : MPEG Audio
Версия формата : Version 1
Профиль формата : Layer 3
Продолжительность : 5 м. 13 с.
Вид битрейта : Постоянный
Битрейт : 256 Кбит/сек
Каналы : 2 канала
Частота : 44,1 КГц
Метод сжатия : С потерями
Размер потока : 9,56 Мбайт (100%)
Библиотека кодирования : LAME3.92

Общее
Полное имя : C:\Users\Андрей\Desktop\Раздачи\Disco90_Avtoradio_rus\002. Кристина Corp. - Вернись.mp3
Формат : MPEG Audio
Размер файла : 10,3 Мбайт
Продолжительность : 5 м. 36 с.
Режим общего битрейта : Постоянный
Общий поток : 256 Кбит/сек
Альбом : Äèñêîòåêà 90õ ñ Àâòîðàäèî
Трек : Âåðíèñü
Трек/Положение : 002
Трек/Всего : 100
Исполнитель : Êðèñòèíà Corp.
Жанр : Disco 90
Дата записи : 2013
Библиотека кодирования : LAME3.98Л­™Ке‘ЈYНЦ

Аудио
Формат : MPEG Audio
Версия формата : Version 1
Профиль формата : Layer 3
Режим : Joint stereo
Продолжительность : 5 м. 37 с.
Вид битрейта : Постоянный
Битрейт : 256 Кбит/сек
Каналы : 2 канала
Частота : 44,1 КГц
Метод сжатия : С потерями
Размер потока : 10,3 Мбайт (100%)
Библиотека кодирования : LAME3.98Л­™Ке‘ЈYНЦ

Общее
Полное имя : C:\Users\Андрей\Desktop\Раздачи\Disco90_Avtoradio_rus\003. Профессор Лебединский - Капельки.mp3
Формат : MPEG Audio
Размер файла : 6,74 Мбайт
Продолжительность : 3 м. 40 с.
Режим общего битрейта : Постоянный
Общий поток : 256 Кбит/сек
Альбом : Äèñêîòåêà 90õ ñ Àâòîðàäèî
Трек : Êàïåëüêè
Трек/Положение : 003
Трек/Всего : 100
Исполнитель : Ïðîôåññîð Ëåáåäèíñêèé
Жанр : Disco 90
Дата записи : 2013
Библиотека кодирования : LAME3.98r

Аудио
Формат : MPEG Audio
Версия формата : Version 1
Профиль формата : Layer 3
Режим : Joint stereo
Продолжительность : 3 м. 40 с.
Вид битрейта : Постоянный
Битрейт : 256 Кбит/сек
Каналы : 2 канала
Частота : 44,1 КГц
Метод сжатия : С потерями
Размер потока : 6,73 Мбайт (100%)
Библиотека кодирования : LAME3.98r
Настройки программы : -m j -V 4 -q 3 -lowpass 19.7

Общее
Полное имя : C:\Users\Андрей\Desktop\Раздачи\Disco90_Avtoradio_rus\004. Ольга Орлова - Выше неба.mp3
Формат : MPEG Audio
Размер файла : 6,44 Мбайт
Продолжительность : 3 м. 30 с.
Режим общего битрейта : Постоянный
Общий поток : 256 Кбит/сек
Альбом : Äèñêîòåêà 90õ ñ Àâòîðàäèî
Трек : Âûøå íåáà
Трек/Положение : 004
Трек/Всего : 100
Исполнитель : Îëüãà Îðëîâà
Жанр : Disco 90
Дата записи : 2013
Библиотека кодирования : LAME3.98r

Аудио
Формат : MPEG Audio
Версия формата : Version 1
Профиль формата : Layer 3
Режим : Joint stereo
Продолжительность : 3 м. 31 с.
Вид битрейта : Постоянный
Битрейт : 256 Кбит/сек
Каналы : 2 канала
Частота : 44,1 КГц
Метод сжатия : С потерями
Размер потока : 6,43 Мбайт (100%)
Библиотека кодирования : LAME3.98r
Настройки программы : -m j -V 4 -q 3 -lowpass 19.7

Общее
Полное имя : C:\Users\Андрей\Desktop\Раздачи\Disco90_Avtoradio_rus\005. Маленький Принц - Я Не Знаю Зачем Мне Ты.mp3
Формат : MPEG Audio
Размер файла : 9,77 Мбайт
Продолжительность : 5 м. 20 с.
Режим общего битрейта : Постоянный
Общий поток : 256 Кбит/сек
Альбом : Äèñêîòåêà 90õ ñ Àâòîðàäèî
Трек : ß Íå Çíàþ Çà÷åì Ìíå Òû
Трек/Положение : 005
Трек/Всего : 100
Исполнитель : Ìàëåíüêèé Ïðèíö
Жанр : Disco 90
Дата записи : 2013
Библиотека кодирования : LAME3.98

Аудио
Формат : MPEG Audio
Версия формата : Version 1
Профиль формата : Layer 3
Режим : Joint stereo
Продолжительность : 5 м. 20 с.
Вид битрейта : Постоянный
Битрейт : 256 Кбит/сек
Каналы : 2 канала
Частота : 44,1 КГц
Метод сжатия : С потерями
Размер потока : 9,77 Мбайт (100%)
Библиотека кодирования : LAME3.98
Настройки программы : -m j -V 4 -q 3 -lowpass 19.7

Общее
Полное имя : C:\Users\Андрей\Desktop\Раздачи\Disco90_Avtoradio_rus\006. Hi-Fi - А мы любили.mp3
Формат : MPEG Audio
Размер файла : 5,69 Мбайт
Продолжительность : 3 м. 6 с.
Режим общего битрейта : Постоянный
Общий поток : 256 Кбит/сек
Альбом : Äèñêîòåêà 90õ ñ Àâòîðàäèî
Трек : À ìû ëþáèëè
Трек/Положение : 006
Трек/Всего : 100
Исполнитель : Hi-Fi
Жанр : Disco 90
Дата записи : 2013
Библиотека кодирования : LAME3.98.2

Аудио
Формат : MPEG Audio
Версия формата : Version 1
Профиль формата : Layer 3
Режим : Joint stereo
Продолжительность : 3 м. 6 с.
Вид битрейта : Постоянный
Битрейт : 256 Кбит/сек
Каналы : 2 канала
Частота : 44,1 КГц
Метод сжатия : С потерями
Размер потока : 5,68 Мбайт (100%)
Библиотека кодирования : LAME3.98.2

Общее
Полное имя : C:\Users\Андрей\Desktop\Раздачи\Disco90_Avtoradio_rus\007. Пропаганда - Мелом.mp3
Формат : MPEG Audio
Размер файла : 5,62 Мбайт
Продолжительность : 3 м. 4 с.
Режим общего битрейта : Постоянный
Общий поток : 256 Кбит/сек
Альбом : Äèñêîòåêà 90õ ñ Àâòîðàäèî
Трек : Ìåëîì
Трек/Положение : 007
Трек/Всего : 100
Исполнитель : Ïðîïàãàíäà
Жанр : Disco 90
Дата записи : 2013
Библиотека кодирования : LAME3.98.2
TYER : 2012

Аудио
Формат : MPEG Audio
Версия формата : Version 1
Профиль формата : Layer 3
Режим : Joint stereo
Расширение режима : MS Stereo
Продолжительность : 3 м. 4 с.
Вид битрейта : Постоянный
Битрейт : 256 Кбит/сек
Каналы : 2 канала
Частота : 44,1 КГц
Метод сжатия : С потерями
Размер потока : 5,62 Мбайт (100%)
Библиотека кодирования : LAME3.98.2

Общее
Полное имя : C:\Users\Андрей\Desktop\Раздачи\Disco90_Avtoradio_rus\008. Руки Вверх - Лишь о тебе мечтая.mp3
Формат : MPEG Audio
Размер файла : 9,66 Мбайт
Продолжительность : 5 м. 16 с.
Режим общего битрейта : Постоянный
Общий поток : 256 Кбит/сек
Альбом : Äèñêîòåêà 90õ ñ Àâòîðàäèî
Трек : Ëèøü î òåáå ìå÷òàÿ
Трек/Положение : 008
Трек/Всего : 100
Исполнитель : Ðóêè Ââåðõ
Жанр : Disco 90
Дата записи : 2013
Библиотека кодирования : LAME3.98.2

Аудио
Формат : MPEG Audio
Версия формата : Version 1
Профиль формата : Layer 3
Режим : Joint stereo
Продолжительность : 5 м. 16 с.
Вид битрейта : Постоянный
Битрейт : 256 Кбит/сек
Каналы : 2 канала
Частота : 44,1 КГц
Метод сжатия : С потерями
Размер потока : 9,65 Мбайт (100%)
Библиотека кодирования : LAME3.98.2

Общее
Полное имя : C:\Users\Андрей\Desktop\Раздачи\Disco90_Avtoradio_rus\009. Анка - А Ты Не Летчик.mp3
Формат : MPEG Audio
Размер файла : 6,58 Мбайт
Продолжительность : 3 м. 35 с.
Режим общего битрейта : Постоянный
Общий поток : 256 Кбит/сек
Альбом : Äèñêîòåêà 90õ ñ Àâòîðàäèî
Трек : À Òû Íå Ëåò÷èê
Трек/Положение : 009
Трек/Всего : 100
Исполнитель : Àíêà
Жанр : Disco 90
Дата записи : 2013
Библиотека кодирования : LAMEЄ

Аудио
Формат : MPEG Audio
Версия формата : Version 1
Профиль формата : Layer 3
Режим : Joint stereo
Продолжительность : 3 м. 35 с.
Вид битрейта : Постоянный
Битрейт : 256 Кбит/сек
Каналы : 2 канала
Частота : 44,1 КГц
Метод сжатия : С потерями
Размер потока : 6,58 Мбайт (100%)
Библиотека кодирования : LAMEЄ

Общее
Полное имя : C:\Users\Андрей\Desktop\Раздачи\Disco90_Avtoradio_rus\010. Звери - Районы-кварталы.mp3
Формат : MPEG Audio
Размер файла : 6,84 Мбайт
Продолжительность : 3 м. 44 с.
Режим общего битрейта : Постоянный
Общий поток : 256 Кбит/сек
Альбом : Äèñêîòåêà 90õ ñ Àâòîðàäèî
Трек : Ðàéîíû-êâàðòàëû
Трек/Положение : 010
Трек/Всего : 100
Исполнитель : Çâåðè
Жанр : Disco 90
Дата записи : 2013
Библиотека кодирования : LAME3.98.2

Аудио
Формат : MPEG Audio
Версия формата : Version 1
Профиль формата : Layer 3
Режим : Joint stereo
Продолжительность : 3 м. 44 с.
Вид битрейта : Постоянный
Битрейт : 256 Кбит/сек
Каналы : 2 канала
Частота : 44,1 КГц
Метод сжатия : С потерями
Размер потока : 6,84 Мбайт (100%)
Библиотека кодирования : LAME3.98.2

Общее
Полное имя : C:\Users\Андрей\Desktop\Раздачи\Disco90_Avtoradio_rus\011. Турбомода - Платье Белое.mp3
Формат : MPEG Audio
Размер файла : 6,80 Мбайт
Продолжительность : 3 м. 42 с.
Режим общего битрейта : Постоянный
Общий поток : 256 Кбит/сек
Альбом : Äèñêîòåêà 90õ ñ Àâòîðàäèî
Трек : Ïëàòüå Áåëîå
Трек/Положение : 011
Трек/Всего : 100
Исполнитель : Òóðáîìîäà
Жанр : Disco 90
Дата записи : 2013
Библиотека кодирования : LAME3.98.2
TYER : 2012

Аудио
Формат : MPEG Audio
Версия формата : Version 1
Профиль формата : Layer 3
Режим : Joint stereo
Продолжительность : 3 м. 43 с.
Вид битрейта : Постоянный
Битрейт : 256 Кбит/сек
Каналы : 2 канала
Частота : 44,1 КГц
Метод сжатия : С потерями
Размер потока : 6,80 Мбайт (100%)
Библиотека кодирования : LAME3.98.2

Общее
Полное имя : C:\Users\Андрей\Desktop\Раздачи\Disco90_Avtoradio_rus\012. Стрелки и Борис Моисеев - Sex-XL Revolution.mp3
Формат : MPEG Audio
Размер файла : 6,35 Мбайт
Продолжительность : 3 м. 28 с.
Режим общего битрейта : Постоянный
Общий поток : 256 Кбит/сек
Альбом : Äèñêîòåêà 90õ ñ Àâòîðàäèî
Трек : Sex-XL Revolution
Трек/Положение : 012
Трек/Всего : 100
Исполнитель : Ñòðåëêè è Áîðèñ Ìîèñååâ
Жанр : Disco 90
Дата записи : 2013
Библиотека кодирования : LAME3.98r

Аудио
Формат : MPEG Audio
Версия формата : Version 1
Профиль формата : Layer 3
Режим : Joint stereo
Расширение режима : MS Stereo
Продолжительность : 3 м. 28 с.
Вид битрейта : Постоянный
Битрейт : 256 Кбит/сек
Каналы : 2 канала
Частота : 44,1 КГц
Метод сжатия : С потерями
Размер потока : 6,35 Мбайт (100%)
Библиотека кодирования : LAME3.98r
Настройки программы : -m j -V 4 -q 3 -lowpass 19.7

Общее
Полное имя : C:\Users\Андрей\Desktop\Раздачи\Disco90_Avtoradio_rus\013. Мишель - У тебя нет сердца.mp3
Формат : MPEG Audio
Размер файла : 5,62 Мбайт
Продолжительность : 3 м. 4 с.
Режим общего битрейта : Постоянный
Общий поток : 256 Кбит/сек
Альбом : Äèñêîòåêà 90õ ñ Àâòîðàäèî
Трек : Ó òåáÿ íåò ñåðäöà
Трек/Положение : 013
Трек/Всего : 100
Исполнитель : Ìèøåëü
Жанр : Disco 90
Дата записи : 2013
Библиотека кодирования : LAME3.98r

Аудио
Формат : MPEG Audio
Версия формата : Version 1
Профиль формата : Layer 3
Режим : Joint stereo
Расширение режима : MS Stereo
Продолжительность : 3 м. 4 с.
Вид битрейта : Постоянный
Битрейт : 256 Кбит/сек
Каналы : 2 канала
Частота : 44,1 КГц
Метод сжатия : С потерями
Размер потока : 5,62 Мбайт (100%)
Библиотека кодирования : LAME3.98r
Настройки программы : -m j -V 4 -q 3 -lowpass 19.7

Общее
Полное имя : C:\Users\Андрей\Desktop\Раздачи\Disco90_Avtoradio_rus\014. О. Зарубина - На Теплоходе Музыка Играет.mp3
Формат : MPEG Audio
Размер файла : 6,51 Мбайт
Продолжительность : 3 м. 33 с.
Режим общего битрейта : Постоянный
Общий поток : 256 Кбит/сек
Альбом : Äèñêîòåêà 90õ ñ Àâòîðàäèî
Трек : Íà Òåïëîõîäå Ìóçûêà Èãðàåò
Трек/Положение : 014
Трек/Всего : 100
Исполнитель : Î. Çàðóáèíà
Жанр : Disco 90
Дата записи : 2013
Библиотека кодирования : LAME3.98

Аудио
Формат : MPEG Audio
Версия формата : Version 1
Профиль формата : Layer 3
Режим : Joint stereo
Продолжительность : 3 м. 33 с.
Вид битрейта : Постоянный
Битрейт : 256 Кбит/сек
Каналы : 2 канала
Частота : 44,1 КГц
Метод сжатия : С потерями
Размер потока : 6,50 Мбайт (100%)
Библиотека кодирования : LAME3.98
Настройки программы : -m j -V 4 -q 3 -lowpass 19.7

Общее
Полное имя : C:\Users\Андрей\Desktop\Раздачи\Disco90_Avtoradio_rus\015. Евгений Осин - Таня + Володя.mp3
Формат : MPEG Audio
Размер файла : 6,35 Мбайт
Продолжительность : 3 м. 27 с.
Режим общего битрейта : Постоянный
Общий поток : 256 Кбит/сек
Альбом : Äèñêîòåêà 90õ ñ Àâòîðàäèî
Трек : Òàíÿ + Âîëîäÿ
Трек/Положение : 015
Трек/Всего : 100
Исполнитель : Åâãåíèé Îñèí
Жанр : Disco 90
Дата записи : 2013
Библиотека кодирования : LAME3.98r

Аудио
Формат : MPEG Audio
Версия формата : Version 1
Профиль формата : Layer 3
Режим : Joint stereo
Расширение режима : MS Stereo
Продолжительность : 3 м. 28 с.
Вид битрейта : Постоянный
Битрейт : 256 Кбит/сек
Каналы : 2 канала
Частота : 44,1 КГц
Метод сжатия : С потерями
Размер потока : 6,35 Мбайт (100%)
Библиотека кодирования : LAME3.98r
Настройки программы : -m j -V 4 -q 3 -lowpass 19.7

Общее
Полное имя : C:\Users\Андрей\Desktop\Раздачи\Disco90_Avtoradio_rus\016. Цветы - Мы Желаем Счастья Вам.mp3
Формат : MPEG Audio
Размер файла : 6,00 Мбайт
Продолжительность : 3 м. 16 с.
Режим общего битрейта : Постоянный
Общий поток : 256 Кбит/сек
Альбом : Äèñêîòåêà 90õ ñ Àâòîðàäèî
Трек : Ìû Æåëàåì Ñ÷àñòüÿ Âàì
Трек/Положение : 016
Трек/Всего : 100
Исполнитель : Öâåòû
Жанр : Disco 90
Дата записи : 2013
Библиотека кодирования : LAME3.98

Аудио
Формат : MPEG Audio
Версия формата : Version 1
Профиль формата : Layer 3
Режим : Joint stereo
Продолжительность : 3 м. 16 с.
Вид битрейта : Постоянный
Битрейт : 256 Кбит/сек
Каналы : 2 канала
Частота : 44,1 КГц
Метод сжатия : С потерями
Размер потока : 6,00 Мбайт (100%)
Библиотека кодирования : LAME3.98
Настройки программы : -m j -V 4 -q 3 -lowpass 19.7

Общее
Полное имя : C:\Users\Андрей\Desktop\Раздачи\Disco90_Avtoradio_rus\017. Владимир Асимов - Самоволочка.mp3
Формат : MPEG Audio
Размер файла : 5,02 Мбайт
Продолжительность : 2 м. 44 с.
Режим общего битрейта : Постоянный
Общий поток : 256 Кбит/сек
Альбом : Äèñêîòåêà 90õ ñ Àâòîðàäèî
Трек : Ñàìîâîëî÷êà
Трек/Положение : 017
Трек/Всего : 100
Исполнитель : Âëàäèìèð Àñèìîâ
Жанр : Disco 90
Дата записи : 2013
Библиотека кодирования : LAME3.98r

Аудио
Формат : MPEG Audio
Версия формата : Version 1
Профиль формата : Layer 3
Режим : Joint stereo
Расширение режима : MS Stereo
Продолжительность : 2 м. 44 с.
Вид битрейта : Постоянный
Битрейт : 256 Кбит/сек
Каналы : 2 канала
Частота : 44,1 КГц
Метод сжатия : С потерями
Размер потока : 5,02 Мбайт (100%)
Библиотека кодирования : LAME3.98r
Настройки программы : -m j -V 4 -q 3 -lowpass 19.7

Общее
Полное имя : C:\Users\Андрей\Desktop\Раздачи\Disco90_Avtoradio_rus\018. Сергей Минаев - Ломбаба.mp3
Формат : MPEG Audio
Размер файла : 6,34 Мбайт
Продолжительность : 3 м. 27 с.
Режим общего битрейта : Постоянный
Общий поток : 256 Кбит/сек
Альбом : Äèñêîòåêà 90õ ñ Àâòîðàäèî
Трек : Ëîìáàáà
Трек/Положение : 018
Трек/Всего : 100
Исполнитель : Ñåðãåé Ìèíàåâ
Жанр : Disco 90
Дата записи : 2013
Библиотека кодирования : LAME3.98.2

Аудио
Формат : MPEG Audio
Версия формата : Version 1
Профиль формата : Layer 3
Режим : Joint stereo
Расширение режима : MS Stereo
Продолжительность : 3 м. 28 с.
Вид битрейта : Постоянный
Битрейт : 256 Кбит/сек
Каналы : 2 канала
Частота : 44,1 КГц
Метод сжатия : С потерями
Размер потока : 6,34 Мбайт (100%)
Библиотека кодирования : LAME3.98.2

Общее
Полное имя : C:\Users\Андрей\Desktop\Раздачи\Disco90_Avtoradio_rus\019. Краски - Не получается.mp3
Формат : MPEG Audio
Размер файла : 6,84 Мбайт
Продолжительность : 3 м. 44 с.
Режим общего битрейта : Постоянный
Общий поток : 256 Кбит/сек
Альбом : Äèñêîòåêà 90õ ñ Àâòîðàäèî
Трек : Íå ïîëó÷àåòñÿ
Трек/Положение : 019
Трек/Всего : 100
Исполнитель : Êðàñêè
Жанр : Disco 90
Дата записи : 2013
Библиотека кодирования : LAME3.98.2

Аудио
Формат : MPEG Audio
Версия формата : Version 1
Профиль формата : Layer 3
Режим : Joint stereo
Расширение режима : MS Stereo
Продолжительность : 3 м. 44 с.
Вид битрейта : Постоянный
Битрейт : 256 Кбит/сек
Каналы : 2 канала
Частота : 44,1 КГц
Метод сжатия : С потерями
Размер потока : 6,84 Мбайт (100%)
Библиотека кодирования : LAME3.98.2

Общее
Полное имя : C:\Users\Андрей\Desktop\Раздачи\Disco90_Avtoradio_rus\020. Андрей Губин - Солнышко.mp3
Формат : MPEG Audio
Размер файла : 5,99 Мбайт
Продолжительность : 3 м. 16 с.
Режим общего битрейта : Постоянный
Общий поток : 256 Кбит/сек
Альбом : Äèñêîòåêà 90õ ñ Àâòîðàäèî
Трек : Ñîëíûøêî
Трек/Положение : 020
Трек/Всего : 100
Исполнитель : Àíäðåé Ãóáèí
Жанр : Disco 90
Дата записи : 2013
Библиотека кодирования : LAME3.98.2
TYER : 2012

Аудио
Формат : MPEG Audio
Версия формата : Version 1
Профиль формата : Layer 3
Режим : Joint stereo
Расширение режима : MS Stereo
Продолжительность : 3 м. 16 с.
Вид битрейта : Постоянный
Битрейт : 256 Кбит/сек
Каналы : 2 канала
Частота : 44,1 КГц
Метод сжатия : С потерями
Размер потока : 5,99 Мбайт (100%)
Библиотека кодирования : LAME3.98.2

Общее
Полное имя : C:\Users\Андрей\Desktop\Раздачи\Disco90_Avtoradio_rus\021. Кристина Орбакайте - Перелетная птица.mp3
Формат : MPEG Audio
Размер файла : 5,72 Мбайт
Продолжительность : 3 м. 7 с.
Режим общего битрейта : Постоянный
Общий поток : 256 Кбит/сек
Альбом : Äèñêîòåêà 90õ ñ Àâòîðàäèî
Трек : Ïåðåëåòíàÿ ïòèöà
Трек/Положение : 021
Трек/Всего : 100
Исполнитель : Êðèñòèíà Îðáàêàéòå
Жанр : Disco 90
Дата записи : 2013
Библиотека кодирования : LAME3.98r

Аудио
Формат : MPEG Audio
Версия формата : Version 1
Профиль формата : Layer 3
Режим : Joint stereo
Расширение режима : MS Stereo
Продолжительность : 3 м. 7 с.
Вид битрейта : Постоянный
Битрейт : 256 Кбит/сек
Каналы : 2 канала
Частота : 44,1 КГц
Метод сжатия : С потерями
Размер потока : 5,72 Мбайт (100%)
Библиотека кодирования : LAME3.98r
Настройки программы : -m j -V 4 -q 3 -lowpass 19.7

Общее
Полное имя : C:\Users\Андрей\Desktop\Раздачи\Disco90_Avtoradio_rus\022. С. Чумаков - Жених.mp3
Формат : MPEG Audio
Размер файла : 6,51 Мбайт
Продолжительность : 3 м. 33 с.
Режим общего битрейта : Постоянный
Общий поток : 256 Кбит/сек
Альбом : Äèñêîòåêà 90õ ñ Àâòîðàäèî
Трек : Æåíèõ
Трек/Положение : 022
Трек/Всего : 100
Исполнитель : Ñ. ×óìàêîâ
Жанр : Disco 90
Дата записи : 2013
Библиотека кодирования : LAME3.98

Аудио
Формат : MPEG Audio
Версия формата : Version 1
Профиль формата : Layer 3
Режим : Joint stereo
Продолжительность : 3 м. 33 с.
Вид битрейта : Постоянный
Битрейт : 256 Кбит/сек
Каналы : 2 канала
Частота : 44,1 КГц
Метод сжатия : С потерями
Размер потока : 6,51 Мбайт (100%)
Библиотека кодирования : LAME3.98
Настройки программы : -m j -V 4 -q 3 -lowpass 19.7

Общее
Полное имя : C:\Users\Андрей\Desktop\Раздачи\Disco90_Avtoradio_rus\023. Верка Сердючка - Я рождена для любви.mp3
Формат : MPEG Audio
Размер файла : 9,80 Мбайт
Продолжительность : 5 м. 21 с.
Режим общего битрейта : Постоянный
Общий поток : 256 Кбит/сек
Альбом : Äèñêîòåêà 90õ ñ Àâòîðàäèî
Трек : ß ðîæäåíà äëÿ ëþáâè
Трек/Положение : 023
Трек/Всего : 100
Исполнитель : Âåðêà Ñåðäþ÷êà
Жанр : Disco 90
Дата записи : 2013
Библиотека кодирования : LAME3.98r

Аудио
Формат : MPEG Audio
Версия формата : Version 1
Профиль формата : Layer 3
Режим : Joint stereo
Продолжительность : 5 м. 21 с.
Вид битрейта : Постоянный
Битрейт : 256 Кбит/сек
Каналы : 2 канала
Частота : 44,1 КГц
Метод сжатия : С потерями
Размер потока : 9,80 Мбайт (100%)
Библиотека кодирования : LAME3.98r
Настройки программы : -m j -V 4 -q 3 -lowpass 19.7

Общее
Полное имя : C:\Users\Андрей\Desktop\Раздачи\Disco90_Avtoradio_rus\024. В.Сташевский - Глаза Чайного Цвета.mp3
Формат : MPEG Audio
Размер файла : 6,43 Мбайт
Продолжительность : 3 м. 30 с.
Режим общего битрейта : Постоянный
Общий поток : 256 Кбит/сек
Альбом : Äèñêîòåêà 90õ ñ Àâòîðàäèî
Трек : Ãëàçà ×àéíîãî Öâåòà
Трек/Положение : 024
Трек/Всего : 100
Исполнитель : Â.Ñòàøåâñêèé
Жанр : Disco 90
Дата записи : 2013
Библиотека кодирования : LAME3.92ЄЄЄЄЄЄЄЄЄЄЄЄ

Аудио
Формат : MPEG Audio
Версия формата : Version 1
Профиль формата : Layer 3
Продолжительность : 3 м. 30 с.
Вид битрейта : Постоянный
Битрейт : 256 Кбит/сек
Каналы : 2 канала
Частота : 44,1 КГц
Метод сжатия : С потерями
Размер потока : 6,43 Мбайт (100%)
Библиотека кодирования : LAME3.92ЄЄЄЄЄЄЄЄЄЄЄЄ

Общее
Полное имя : C:\Users\Андрей\Desktop\Раздачи\Disco90_Avtoradio_rus\025. Лада Дэнс - Один лишь раз.mp3
Формат : MPEG Audio
Размер файла : 6,74 Мбайт
Продолжительность : 3 м. 40 с.
Режим общего битрейта : Постоянный
Общий поток : 256 Кбит/сек
Альбом : Äèñêîòåêà 90õ ñ Àâòîðàäèî
Трек : Îäèí ëèøü ðàç
Трек/Положение : 025
Трек/Всего : 100
Исполнитель : Ëàäà Äýíñ
Жанр : Disco 90
Дата записи : 2013
Библиотека кодирования : LAME3.98r

Аудио
Формат : MPEG Audio
Версия формата : Version 1
Профиль формата : Layer 3
Режим : Joint stereo
Расширение режима : MS Stereo
Продолжительность : 3 м. 40 с.
Вид битрейта : Постоянный
Битрейт : 256 Кбит/сек
Каналы : 2 канала
Частота : 44,1 КГц
Метод сжатия : С потерями
Размер потока : 6,74 Мбайт (100%)
Библиотека кодирования : LAME3.98r
Настройки программы : -m j -V 4 -q 3 -lowpass 19.7

Общее
Полное имя : C:\Users\Андрей\Desktop\Раздачи\Disco90_Avtoradio_rus\026. Мумий Тролль - Утекай.mp3
Формат : MPEG Audio
Размер файла : 4,32 Мбайт
Продолжительность : 2 м. 21 с.
Режим общего битрейта : Постоянный
Общий поток : 256 Кбит/сек
Альбом : Äèñêîòåêà 90õ ñ Àâòîðàäèî
Трек : Óòåêàé
Трек/Положение : 026
Трек/Всего : 100
Исполнитель : Ìóìèé Òðîëëü
Жанр : Disco 90
Дата записи : 2013
Библиотека кодирования : LAME3.98.2
TYER : 2012

Аудио
Формат : MPEG Audio
Версия формата : Version 1
Профиль формата : Layer 3
Режим : Joint stereo
Продолжительность : 2 м. 21 с.
Вид битрейта : Постоянный
Битрейт : 256 Кбит/сек
Каналы : 2 канала
Частота : 44,1 КГц
Метод сжатия : С потерями
Размер потока : 4,32 Мбайт (100%)
Библиотека кодирования : LAME3.98.2

Общее
Полное имя : C:\Users\Андрей\Desktop\Раздачи\Disco90_Avtoradio_rus\027. Восток - До встречи.mp3
Формат : MPEG Audio
Размер файла : 6,36 Мбайт
Продолжительность : 3 м. 28 с.
Режим общего битрейта : Постоянный
Общий поток : 256 Кбит/сек
Альбом : Äèñêîòåêà 90õ ñ Àâòîðàäèî
Трек : Äî âñòðå÷è
Трек/Положение : 027
Трек/Всего : 100
Исполнитель : Âîñòîê
Жанр : Disco 90
Дата записи : 2013
Библиотека кодирования : LAME3.98.2UUUUUU›ґ p

Аудио
Формат : MPEG Audio
Версия формата : Version 1
Профиль формата : Layer 3
Режим : Joint stereo
Продолжительность : 3 м. 28 с.
Вид битрейта : Постоянный
Битрейт : 256 Кбит/сек
Каналы : 2 канала
Частота : 44,1 КГц
Метод сжатия : С потерями
Размер потока : 6,36 Мбайт (100%)
Библиотека кодирования : LAME3.98.2UUUUUU›ґ p

Общее
Полное имя : C:\Users\Андрей\Desktop\Раздачи\Disco90_Avtoradio_rus\028. Горячие Головы - Бананы Лопала Бомба.mp3
Формат : MPEG Audio
Размер файла : 5,65 Мбайт
Продолжительность : 3 м. 5 с.
Режим общего битрейта : Постоянный
Общий поток : 256 Кбит/сек
Альбом : Äèñêîòåêà 90õ ñ Àâòîðàäèî
Трек : Áàíàíû Ëîïàëà Áîìáà
Трек/Положение : 028
Трек/Всего : 100
Исполнитель : Ãîðÿ÷èå Ãîëîâû
Жанр : Disco 90
Дата записи : 2013
Библиотека кодирования : LAME3.98.2
TYER : 2012

Аудио
Формат : MPEG Audio
Версия формата : Version 1
Профиль формата : Layer 3
Режим : Joint stereo
Расширение режима : MS Stereo
Продолжительность : 3 м. 5 с.
Вид битрейта : Постоянный
Битрейт : 256 Кбит/сек
Каналы : 2 канала
Частота : 44,1 КГц
Метод сжатия : С потерями
Размер потока : 5,65 Мбайт (100%)
Библиотека кодирования : LAME3.98.2

Общее
Полное имя : C:\Users\Андрей\Desktop\Раздачи\Disco90_Avtoradio_rus\029. Верасы - Малиновки Заслыша Голоса.mp3
Формат : MPEG Audio
Размер файла : 4,55 Мбайт
Продолжительность : 2 м. 29 с.
Режим общего битрейта : Постоянный
Общий поток : 256 Кбит/сек
Альбом : Äèñêîòåêà 90õ ñ Àâòîðàäèî
Трек : Ìàëèíîâêè Çàñëûøà Ãîëîñà
Трек/Положение : 029
Трек/Всего : 100
Исполнитель : Âåðàñû
Жанр : Disco 90
Дата записи : 2013
Библиотека кодирования : LAME3.98

Аудио
Формат : MPEG Audio
Версия формата : Version 1
Профиль формата : Layer 3
Режим : Joint stereo
Продолжительность : 2 м. 29 с.
Вид битрейта : Постоянный
Битрейт : 256 Кбит/сек
Каналы : 2 канала
Частота : 44,1 КГц
Метод сжатия : С потерями
Размер потока : 4,55 Мбайт (100%)
Библиотека кодирования : LAME3.98
Настройки программы : -m j -V 4 -q 3 -lowpass 19.7

Общее
Полное имя : C:\Users\Андрей\Desktop\Раздачи\Disco90_Avtoradio_rus\030. Иракли - Лондон-Париж.mp3
Формат : MPEG Audio
Размер файла : 6,75 Мбайт
Продолжительность : 3 м. 41 с.
Режим общего битрейта : Постоянный
Общий поток : 256 Кбит/сек
Альбом : Äèñêîòåêà 90õ ñ Àâòîðàäèî
Трек : Ëîíäîí-Ïàðèæ
Трек/Положение : 030
Трек/Всего : 100
Исполнитель : Èðàêëè
Жанр : Disco 90
Дата записи : 2013
Библиотека кодирования : LAME3.98.2ЄЄЄЄЄЄЄЄЄЄ
TYER : 2012

Аудио
Формат : MPEG Audio
Версия формата : Version 1
Профиль формата : Layer 3
Режим : Joint stereo
Продолжительность : 3 м. 41 с.
Вид битрейта : Постоянный
Битрейт : 256 Кбит/сек
Каналы : 2 канала
Частота : 44,1 КГц
Метод сжатия : С потерями
Размер потока : 6,75 Мбайт (100%)
Библиотека кодирования : LAME3.98.2ЄЄЄЄЄЄЄЄЄЄ

Общее
Полное имя : C:\Users\Андрей\Desktop\Раздачи\Disco90_Avtoradio_rus\031. Президент и Амазонка - Детская плясовая.mp3
Формат : MPEG Audio
Размер файла : 6,88 Мбайт
Продолжительность : 3 м. 45 с.
Режим общего битрейта : Постоянный
Общий поток : 256 Кбит/сек
Альбом : Äèñêîòåêà 90õ ñ Àâòîðàäèî
Трек : Äåòñêàÿ ïëÿñîâàÿ
Трек/Положение : 031
Трек/Всего : 100
Исполнитель : Ïðåçèäåíò è Àìàçîíêà
Жанр : Disco 90
Дата записи : 2013
Библиотека кодирования : LAME3.98.2

Аудио
Формат : MPEG Audio
Версия формата : Version 1
Профиль формата : Layer 3
Режим : Joint stereo
Расширение режима : MS Stereo
Продолжительность : 3 м. 45 с.
Вид битрейта : Постоянный
Битрейт : 256 Кбит/сек
Каналы : 2 канала
Частота : 44,1 КГц
Метод сжатия : С потерями
Размер потока : 6,87 Мбайт (100%)
Библиотека кодирования : LAME3.98.2

Общее
Полное имя : C:\Users\Андрей\Desktop\Раздачи\Disco90_Avtoradio_rus\032. Ласковый Май - Лето.mp3
Формат : MPEG Audio
Размер файла : 6,24 Мбайт
Продолжительность : 3 м. 24 с.
Режим общего битрейта : Постоянный
Общий поток : 256 Кбит/сек
Альбом : Äèñêîòåêà 90õ ñ Àâòîðàäèî
Трек : Ëåòî
Трек/Положение : 032
Трек/Всего : 100
Исполнитель : Ëàñêîâûé Ìàé
Жанр : Disco 90
Дата записи : 2013
Библиотека кодирования : LAME3.98

Аудио
Формат : MPEG Audio
Версия формата : Version 1
Профиль формата : Layer 3
Режим : Joint stereo
Продолжительность : 3 м. 24 с.
Вид битрейта : Постоянный
Битрейт : 256 Кбит/сек
Каналы : 2 канала
Частота : 44,1 КГц
Метод сжатия : С потерями
Размер потока : 6,24 Мбайт (100%)
Библиотека кодирования : LAME3.98
Настройки программы : -m j -V 4 -q 3 -lowpass 19.7

Общее
Полное имя : C:\Users\Андрей\Desktop\Раздачи\Disco90_Avtoradio_rus\033. Демо - Я делаю вдох.mp3
Формат : MPEG Audio
Размер файла : 9,30 Мбайт
Продолжительность : 5 м. 4 с.
Режим общего битрейта : Постоянный
Общий поток : 256 Кбит/сек
Альбом : Äèñêîòåêà 90õ ñ Àâòîðàäèî
Трек : ß äåëàþ âäîõ
Трек/Положение : 033
Трек/Всего : 100
Исполнитель : Äåìî
Жанр : Disco 90
Дата записи : 2013
Библиотека кодирования : LAME3.98.2

Аудио
Формат : MPEG Audio
Версия формата : Version 1
Профиль формата : Layer 3
Режим : Joint stereo
Расширение режима : MS Stereo
Продолжительность : 5 м. 5 с.
Вид битрейта : Постоянный
Битрейт : 256 Кбит/сек
Каналы : 2 канала
Частота : 44,1 КГц
Метод сжатия : С потерями
Размер потока : 9,30 Мбайт (100%)
Библиотека кодирования : LAME3.98.2

Общее
Полное имя : C:\Users\Андрей\Desktop\Раздачи\Disco90_Avtoradio_rus\034. Руки вверх! - Ай-яй-яй.mp3
Формат : MPEG Audio
Размер файла : 6,91 Мбайт
Продолжительность : 3 м. 46 с.
Режим общего битрейта : Постоянный
Общий поток : 256 Кбит/сек
Альбом : Äèñêîòåêà 90õ ñ Àâòîðàäèî
Трек : Àé-ÿé-ÿé
Трек/Положение : 034
Трек/Всего : 100
Исполнитель : Ðóêè ââåðõ!
Жанр : Disco 90
Дата записи : 2013
Библиотека кодирования : LAME3.98r

Аудио
Формат : MPEG Audio
Версия формата : Version 1
Профиль формата : Layer 3
Режим : Joint stereo
Расширение режима : MS Stereo
Продолжительность : 3 м. 46 с.
Вид битрейта : Постоянный
Битрейт : 256 Кбит/сек
Каналы : 2 канала
Частота : 44,1 КГц
Метод сжатия : С потерями
Размер потока : 6,91 Мбайт (100%)
Библиотека кодирования : LAME3.98r
Настройки программы : -m j -V 4 -q 3 -lowpass 19.7

Общее
Полное имя : C:\Users\Андрей\Desktop\Раздачи\Disco90_Avtoradio_rus\035. Стрелки - Я Хорошая.mp3
Формат : MPEG Audio
Размер файла : 5,79 Мбайт
Продолжительность : 3 м. 9 с.
Режим общего битрейта : Постоянный
Общий поток : 256 Кбит/сек
Альбом : Äèñêîòåêà 90õ ñ Àâòîðàäèî
Трек : ß Õîðîøàÿ
Трек/Положение : 035
Трек/Всего : 100
Исполнитель : Ñòðåëêè
Жанр : Disco 90
Дата записи : 2013
Библиотека кодирования : LAME3.92ЄЄЄЄЄЄЄЄЄЄЄЄ

Аудио
Формат : MPEG Audio
Версия формата : Version 1
Профиль формата : Layer 3
Продолжительность : 3 м. 9 с.
Вид битрейта : Постоянный
Битрейт : 256 Кбит/сек
Каналы : 2 канала
Частота : 44,1 КГц
Метод сжатия : С потерями
Размер потока : 5,79 Мбайт (100%)
Библиотека кодирования : LAME3.92ЄЄЄЄЄЄЄЄЄЄЄЄ

Общее
Полное имя : C:\Users\Андрей\Desktop\Раздачи\Disco90_Avtoradio_rus\036. Сергей Минаев - 22 притопа.mp3
Формат : MPEG Audio
Размер файла : 6,28 Мбайт
Продолжительность : 3 м. 25 с.
Режим общего битрейта : Постоянный
Общий поток : 256 Кбит/сек
Альбом : Äèñêîòåêà 90õ ñ Àâòîðàäèî
Трек : 22 ïðèòîïà
Трек/Положение : 036
Трек/Всего : 100
Исполнитель : Ñåðãåé Ìèíàåâ
Жанр : Disco 90
Дата записи : 2013
Библиотека кодирования : LAME3.98.2

Аудио
Формат : MPEG Audio
Версия формата : Version 1
Профиль формата : Layer 3
Режим : Joint stereo
Продолжительность : 3 м. 25 с.
Вид битрейта : Постоянный
Битрейт : 256 Кбит/сек
Каналы : 2 канала
Частота : 44,1 КГц
Метод сжатия : С потерями
Размер потока : 6,28 Мбайт (100%)
Библиотека кодирования : LAME3.98.2

Общее
Полное имя : C:\Users\Андрей\Desktop\Раздачи\Disco90_Avtoradio_rus\037. Краски - Раз-Два-Три-Четыре.mp3
Формат : MPEG Audio
Размер файла : 6,08 Мбайт
Продолжительность : 3 м. 19 с.
Режим общего битрейта : Постоянный
Общий поток : 256 Кбит/сек
Альбом : Äèñêîòåêà 90õ ñ Àâòîðàäèî
Трек : Ðàç-Äâà-Òðè-×åòûðå
Трек/Положение : 037
Трек/Всего : 100
Исполнитель : Êðàñêè
Жанр : Disco 90
Дата записи : 2013
Библиотека кодирования : LAME3.98.2UUUUUUUµЂ
TYER : 2012

Аудио
Формат : MPEG Audio
Версия формата : Version 1
Профиль формата : Layer 3
Режим : Joint stereo
Продолжительность : 3 м. 19 с.
Вид битрейта : Постоянный
Битрейт : 256 Кбит/сек
Каналы : 2 канала
Частота : 44,1 КГц
Метод сжатия : С потерями
Размер потока : 6,08 Мбайт (100%)
Библиотека кодирования : LAME3.98.2UUUUUUUµЂ

Общее
Полное имя : C:\Users\Андрей\Desktop\Раздачи\Disco90_Avtoradio_rus\038. Натали - Ветер с моря дул.mp3
Формат : MPEG Audio
Размер файла : 6,88 Мбайт
Продолжительность : 3 м. 45 с.
Режим общего битрейта : Постоянный
Общий поток : 256 Кбит/сек
Альбом : Äèñêîòåêà 90õ ñ Àâòîðàäèî
Трек : Âåòåð ñ ìîðÿ äóë
Трек/Положение : 038
Трек/Всего : 100
Исполнитель : Íàòàëè
Жанр : Disco 90
Дата записи : 2013
Библиотека кодирования : LAME3.98.2

Аудио
Формат : MPEG Audio
Версия формата : Version 1
Профиль формата : Layer 3
Режим : Joint stereo
Расширение режима : MS Stereo
Продолжительность : 3 м. 45 с.
Вид битрейта : Постоянный
Битрейт : 256 Кбит/сек
Каналы : 2 канала
Частота : 44,1 КГц
Метод сжатия : С потерями
Размер потока : 6,87 Мбайт (100%)
Библиотека кодирования : LAME3.98.2

Общее
Полное имя : C:\Users\Андрей\Desktop\Раздачи\Disco90_Avtoradio_rus\039. Андрей Губин - Облака.mp3
Формат : MPEG Audio
Размер файла : 6,24 Мбайт
Продолжительность : 3 м. 24 с.
Режим общего битрейта : Постоянный
Общий поток : 256 Кбит/сек
Альбом : Äèñêîòåêà 90õ ñ Àâòîðàäèî
Трек : Îáëàêà
Трек/Положение : 039
Трек/Всего : 100
Исполнитель : Àíäðåé Ãóáèí
Жанр : Disco 90
Дата записи : 2013
Библиотека кодирования : LAME3.98.2

Аудио
Формат : MPEG Audio
Версия формата : Version 1
Профиль формата : Layer 3
Режим : Joint stereo
Расширение режима : MS Stereo
Продолжительность : 3 м. 24 с.
Вид битрейта : Постоянный
Битрейт : 256 Кбит/сек
Каналы : 2 канала
Частота : 44,1 КГц
Метод сжатия : С потерями
Размер потока : 6,23 Мбайт (100%)
Библиотека кодирования : LAME3.98.2

Общее
Полное имя : C:\Users\Андрей\Desktop\Раздачи\Disco90_Avtoradio_rus\040. Блестящие - Апельсиновая песня.mp3
Формат : MPEG Audio
Размер файла : 6,75 Мбайт
Продолжительность : 3 м. 41 с.
Режим общего битрейта : Постоянный
Общий поток : 256 Кбит/сек
Альбом : Äèñêîòåêà 90õ ñ Àâòîðàäèî
Трек : Àïåëüñèíîâàÿ ïåñíÿ
Трек/Положение : 040
Трек/Всего : 100
Исполнитель : Áëåñòÿùèå
Жанр : Disco 90
Дата записи : 2013
Библиотека кодирования : LAME3.98.2

Аудио
Формат : MPEG Audio
Версия формата : Version 1
Профиль формата : Layer 3
Режим : Joint stereo
Продолжительность : 3 м. 41 с.
Вид битрейта : Постоянный
Битрейт : 256 Кбит/сек
Каналы : 2 канала
Частота : 44,1 КГц
Метод сжатия : С потерями
Размер потока : 6,75 Мбайт (100%)
Библиотека кодирования : LAME3.98.2

Общее
Полное имя : C:\Users\Андрей\Desktop\Раздачи\Disco90_Avtoradio_rus\041. Ариэль - Порушка Параня.mp3
Формат : MPEG Audio
Размер файла : 6,76 Мбайт
Продолжительность : 3 м. 41 с.
Режим общего битрейта : Постоянный
Общий поток : 256 Кбит/сек
Альбом : Äèñêîòåêà 90õ ñ Àâòîðàäèî
Трек : Ïîðóøêà Ïàðàíÿ
Трек/Положение : 041
Трек/Всего : 100
Исполнитель : Àðèýëü
Жанр : Disco 90
Дата записи : 2013
Библиотека кодирования : LAME3.98

Аудио
Формат : MPEG Audio
Версия формата : Version 1
Профиль формата : Layer 3
Режим : Joint stereo
Продолжительность : 3 м. 41 с.
Вид битрейта : Постоянный
Битрейт : 256 Кбит/сек
Каналы : 2 канала
Частота : 44,1 КГц
Метод сжатия : С потерями
Размер потока : 6,76 Мбайт (100%)
Библиотека кодирования : LAME3.98
Настройки программы : -m j -V 4 -q 3 -lowpass 19.7

Общее
Полное имя : C:\Users\Андрей\Desktop\Раздачи\Disco90_Avtoradio_rus\042. Фанки - Только тебе.mp3
Формат : MPEG Audio
Размер файла : 5,97 Мбайт
Продолжительность : 3 м. 15 с.
Режим общего битрейта : Постоянный
Общий поток : 256 Кбит/сек
Альбом : Äèñêîòåêà 90õ ñ Àâòîðàäèî
Трек : Òîëüêî òåáå
Трек/Положение : 042
Трек/Всего : 100
Исполнитель : Ôàíêè
Жанр : Disco 90
Дата записи : 2013
Библиотека кодирования : LAME3.98r

Аудио
Формат : MPEG Audio
Версия формата : Version 1
Профиль формата : Layer 3
Режим : Joint stereo
Расширение режима : MS Stereo
Продолжительность : 3 м. 15 с.
Вид битрейта : Постоянный
Битрейт : 256 Кбит/сек
Каналы : 2 канала
Частота : 44,1 КГц
Метод сжатия : С потерями
Размер потока : 5,96 Мбайт (100%)
Библиотека кодирования : LAME3.98r
Настройки программы : -m j -V 4 -q 3 -lowpass 19.7

Общее
Полное имя : C:\Users\Андрей\Desktop\Раздачи\Disco90_Avtoradio_rus\043. А. Серов - Мадонна.mp3
Формат : MPEG Audio
Размер файла : 6,68 Мбайт
Продолжительность : 3 м. 38 с.
Режим общего битрейта : Постоянный
Общий поток : 256 Кбит/сек
Альбом : Äèñêîòåêà 90õ ñ Àâòîðàäèî
Трек : Ìàäîííà
Трек/Положение : 043
Трек/Всего : 100
Исполнитель : À. Ñåðîâ
Жанр : Disco 90
Дата записи : 2013
Библиотека кодирования : LAME3.98

Аудио
Формат : MPEG Audio
Версия формата : Version 1
Профиль формата : Layer 3
Режим : Joint stereo
Продолжительность : 3 м. 38 с.
Вид битрейта : Постоянный
Битрейт : 256 Кбит/сек
Каналы : 2 канала
Частота : 44,1 КГц
Метод сжатия : С потерями
Размер потока : 6,67 Мбайт (100%)
Библиотека кодирования : LAME3.98
Настройки программы : -m j -V 4 -q 3 -lowpass 19.7

Общее
Полное имя : C:\Users\Андрей\Desktop\Раздачи\Disco90_Avtoradio_rus\044. Чичерина - Жара.mp3
Формат : MPEG Audio
Размер файла : 6,51 Мбайт
Продолжительность : 3 м. 33 с.
Режим общего битрейта : Постоянный
Общий поток : 256 Кбит/сек
Альбом : Äèñêîòåêà 90õ ñ Àâòîðàäèî
Трек : Æàðà
Трек/Положение : 044
Трек/Всего : 100
Исполнитель : ×è÷åðèíà
Жанр : Disco 90
Дата записи : 2013
Библиотека кодирования : LAME3.98.2
TYER : 2012

Аудио
Формат : MPEG Audio
Версия формата : Version 1
Профиль формата : Layer 3
Режим : Joint stereo
Продолжительность : 3 м. 33 с.
Вид битрейта : Постоянный
Битрейт : 256 Кбит/сек
Каналы : 2 канала
Частота : 44,1 КГц
Метод сжатия : С потерями
Размер потока : 6,51 Мбайт (100%)
Библиотека кодирования : LAME3.98.2

Общее
Полное имя : C:\Users\Андрей\Desktop\Раздачи\Disco90_Avtoradio_rus\045. Кристина Corp. - С Января До Января.mp3
Формат : MPEG Audio
Размер файла : 10,2 Мбайт
Продолжительность : 5 м. 32 с.
Режим общего битрейта : Постоянный
Общий поток : 256 Кбит/сек
Альбом : Äèñêîòåêà 90õ ñ Àâòîðàäèî
Трек : Ñ ßíâàðÿ Äî ßíâàðÿ
Трек/Положение : 045
Трек/Всего : 100
Исполнитель : Êðèñòèíà Corp.
Жанр : Disco 90
Дата записи : 2013
Библиотека кодирования : LAME3.93

Аудио
Формат : MPEG Audio
Версия формата : Version 1
Профиль формата : Layer 3
Режим : Dual mono
Продолжительность : 5 м. 33 с.
Вид битрейта : Постоянный
Битрейт : 256 Кбит/сек
Каналы : 2 канала
Частота : 44,1 КГц
Метод сжатия : С потерями
Размер потока : 10,2 Мбайт (100%)
Библиотека кодирования : LAME3.93

Общее
Полное имя : C:\Users\Андрей\Desktop\Раздачи\Disco90_Avtoradio_rus\046. Кар-Мэн - Лондон Гуд-бай.mp3
Формат : MPEG Audio
Размер файла : 10,0 Мбайт
Продолжительность : 5 м. 27 с.
Режим общего битрейта : Постоянный
Общий поток : 256 Кбит/сек
Альбом : Äèñêîòåêà 90õ ñ Àâòîðàäèî
Трек : Ëîíäîí Ãóä-áàé
Трек/Положение : 046
Трек/Всего : 100
Исполнитель : Êàð-Ìýí
Жанр : Disco 90
Дата записи : 2013
Библиотека кодирования : LAME3.98.2

Аудио
Формат : MPEG Audio
Версия формата : Version 1
Профиль формата : Layer 3
Режим : Joint stereo
Продолжительность : 5 м. 28 с.
Вид битрейта : Постоянный
Битрейт : 256 Кбит/сек
Каналы : 2 канала
Частота : 44,1 КГц
Метод сжатия : С потерями
Размер потока : 10,0 Мбайт (100%)
Библиотека кодирования : LAME3.98.2

Общее
Полное имя : C:\Users\Андрей\Desktop\Раздачи\Disco90_Avtoradio_rus\047. Дискотека Авария - На острие атаки.mp3
Формат : MPEG Audio
Размер файла : 6,33 Мбайт
Продолжительность : 3 м. 27 с.
Режим общего битрейта : Постоянный
Общий поток : 256 Кбит/сек
Альбом : Äèñêîòåêà 90õ ñ Àâòîðàäèî
Трек : Íà îñòðèå àòàêè
Трек/Положение : 047
Трек/Всего : 100
Исполнитель : Äèñêîòåêà Àâàðèÿ
Жанр : Disco 90
Дата записи : 2013
Библиотека кодирования : LAME3.98r

Аудио
Формат : MPEG Audio
Версия формата : Version 1
Профиль формата : Layer 3
Режим : Joint stereo
Продолжительность : 3 м. 27 с.
Вид битрейта : Постоянный
Битрейт : 256 Кбит/сек
Каналы : 2 канала
Частота : 44,1 КГц
Метод сжатия : С потерями
Размер потока : 6,33 Мбайт (100%)
Библиотека кодирования : LAME3.98r
Настройки программы : -m j -V 4 -q 3 -lowpass 19.7

Общее
Полное имя : C:\Users\Андрей\Desktop\Раздачи\Disco90_Avtoradio_rus\048. Браво - Дорога В Облака.mp3
Формат : MPEG Audio
Размер файла : 5,53 Мбайт
Продолжительность : 3 м. 1 с.
Режим общего битрейта : Постоянный
Общий поток : 256 Кбит/сек
Альбом : Äèñêîòåêà 90õ ñ Àâòîðàäèî
Трек : Äîðîãà Â Îáëàêà
Трек/Положение : 048
Трек/Всего : 100
Исполнитель : Áðàâî
Жанр : Disco 90
Дата записи : 2013
Библиотека кодирования : LAME3.92

Аудио
Формат : MPEG Audio
Версия формата : Version 1
Профиль формата : Layer 3
Продолжительность : 3 м. 1 с.
Вид битрейта : Постоянный
Битрейт : 256 Кбит/сек
Каналы : 2 канала
Частота : 44,1 КГц
Метод сжатия : С потерями
Размер потока : 5,52 Мбайт (100%)
Библиотека кодирования : LAME3.92

Общее
Полное имя : C:\Users\Андрей\Desktop\Раздачи\Disco90_Avtoradio_rus\049. Н. Ветлицкая - Посмотри В Глаза.mp3
Формат : MPEG Audio
Размер файла : 6,56 Мбайт
Продолжительность : 3 м. 34 с.
Режим общего битрейта : Постоянный
Общий поток : 256 Кбит/сек
Альбом : Äèñêîòåêà 90õ ñ Àâòîðàäèî
Трек : Ïîñìîòðè Â Ãëàçà
Трек/Положение : 049
Трек/Всего : 100
Исполнитель : Í. Âåòëèöêàÿ
Жанр : Disco 90
Дата записи : 2013
Библиотека кодирования : LAME3.98.2

Аудио
Формат : MPEG Audio
Версия формата : Version 1
Профиль формата : Layer 3
Режим : Joint stereo
Продолжительность : 3 м. 35 с.
Вид битрейта : Постоянный
Битрейт : 256 Кбит/сек
Каналы : 2 канала
Частота : 44,1 КГц
Метод сжатия : С потерями
Размер потока : 6,56 Мбайт (100%)
Библиотека кодирования : LAME3.98.2

Общее
Полное имя : C:\Users\Андрей\Desktop\Раздачи\Disco90_Avtoradio_rus\050. Нэнси - Голубоглазая.mp3
Формат : MPEG Audio
Размер файла : 6,79 Мбайт
Продолжительность : 3 м. 42 с.
Режим общего битрейта : Постоянный
Общий поток : 256 Кбит/сек
Альбом : Äèñêîòåêà 90õ ñ Àâòîðàäèî
Трек : Ãîëóáîãëàçàÿ
Трек/Положение : 050
Трек/Всего : 100
Исполнитель : Íýíñè
Жанр : Disco 90
Дата записи : 2013
Библиотека кодирования : LAME3.98r

Аудио
Формат : MPEG Audio
Версия формата : Version 1
Профиль формата : Layer 3
Режим : Joint stereo
Продолжительность : 3 м. 42 с.
Вид битрейта : Постоянный
Битрейт : 256 Кбит/сек
Каналы : 2 канала
Частота : 44,1 КГц
Метод сжатия : С потерями
Размер потока : 6,79 Мбайт (100%)
Библиотека кодирования : LAME3.98r
Настройки программы : -m j -V 4 -q 3 -lowpass 19.7

Общее
Полное имя : C:\Users\Андрей\Desktop\Раздачи\Disco90_Avtoradio_rus\051. Валерия - Не обижай меня.mp3
Формат : MPEG Audio
Размер файла : 9,88 Мбайт
Продолжительность : 5 м. 23 с.
Режим общего битрейта : Постоянный
Общий поток : 256 Кбит/сек
Альбом : Äèñêîòåêà 90õ ñ Àâòîðàäèî
Трек : Íå îáèæàé ìåíÿ
Трек/Положение : 051
Трек/Всего : 100
Исполнитель : Âàëåðèÿ
Жанр : Disco 90
Дата записи : 2013
Библиотека кодирования : LAME3.98r

Аудио
Формат : MPEG Audio
Версия формата : Version 1
Профиль формата : Layer 3
Режим : Joint stereo
Продолжительность : 5 м. 23 с.
Вид битрейта : Постоянный
Битрейт : 256 Кбит/сек
Каналы : 2 канала
Частота : 44,1 КГц
Метод сжатия : С потерями
Размер потока : 9,88 Мбайт (100%)
Библиотека кодирования : LAME3.98r
Настройки программы : -m j -V 4 -q 3 -lowpass 19.7

Общее
Полное имя : C:\Users\Андрей\Desktop\Раздачи\Disco90_Avtoradio_rus\052. Премьер-Министр - Девочка с Севера.mp3
Формат : MPEG Audio
Размер файла : 5,53 Мбайт
Продолжительность : 3 м. 1 с.
Режим общего битрейта : Постоянный
Общий поток : 256 Кбит/сек
Альбом : Äèñêîòåêà 90õ ñ Àâòîðàäèî
Трек : Äåâî÷êà ñ Ñåâåðà
Трек/Положение : 052
Трек/Всего : 100
Исполнитель : Ïðåìüåð-Ìèíèñòð
Жанр : Disco 90
Дата записи : 2013
Библиотека кодирования : LAME3.98.2
TYER : 2012

Аудио
Формат : MPEG Audio
Версия формата : Version 1
Профиль формата : Layer 3
Режим : Joint stereo
Продолжительность : 3 м. 1 с.
Вид битрейта : Постоянный
Битрейт : 256 Кбит/сек
Каналы : 2 канала
Частота : 44,1 КГц
Метод сжатия : С потерями
Размер потока : 5,53 Мбайт (100%)
Библиотека кодирования : LAME3.98.2

Общее
Полное имя : C:\Users\Андрей\Desktop\Раздачи\Disco90_Avtoradio_rus\053. Турбомода - Позови.mp3
Формат : MPEG Audio
Размер файла : 6,91 Мбайт
Продолжительность : 3 м. 46 с.
Режим общего битрейта : Постоянный
Общий поток : 256 Кбит/сек
Альбом : Äèñêîòåêà 90õ ñ Àâòîðàäèî
Трек : Ïîçîâè
Трек/Положение : 053
Трек/Всего : 100
Исполнитель : Òóðáîìîäà
Жанр : Disco 90
Дата записи : 2013
Библиотека кодирования : LAME3.98r

Аудио
Формат : MPEG Audio
Версия формата : Version 1
Профиль формата : Layer 3
Режим : Joint stereo
Расширение режима : MS Stereo
Продолжительность : 3 м. 46 с.
Вид битрейта : Постоянный
Битрейт : 256 Кбит/сек
Каналы : 2 канала
Частота : 44,1 КГц
Метод сжатия : С потерями
Размер потока : 6,91 Мбайт (100%)
Библиотека кодирования : LAME3.98r
Настройки программы : -m j -V 4 -q 3 -lowpass 19.7

Общее
Полное имя : C:\Users\Андрей\Desktop\Раздачи\Disco90_Avtoradio_rus\054. К. Никольский - Я Сам Из Тех.mp3
Формат : MPEG Audio
Размер файла : 4,36 Мбайт
Продолжительность : 2 м. 22 с.
Режим общего битрейта : Постоянный
Общий поток : 256 Кбит/сек
Альбом : Äèñêîòåêà 90õ ñ Àâòîðàäèî
Трек : ß Ñàì Èç Òåõ
Трек/Положение : 054
Трек/Всего : 100
Исполнитель : Ê. Íèêîëüñêèé
Жанр : Disco 90
Дата записи : 2013
Библиотека кодирования : LAME3.98

Аудио
Формат : MPEG Audio
Версия формата : Version 1
Профиль формата : Layer 3
Режим : Joint stereo
Продолжительность : 2 м. 22 с.
Вид битрейта : Постоянный
Битрейт : 256 Кбит/сек
Каналы : 2 канала
Частота : 44,1 КГц
Метод сжатия : С потерями
Размер потока : 4,35 Мбайт (100%)
Библиотека кодирования : LAME3.98
Настройки программы : -m j -V 4 -q 3 -lowpass 19.7

Общее
Полное имя : C:\Users\Андрей\Desktop\Раздачи\Disco90_Avtoradio_rus\055. Евгений Осин - Плачет девушка в автомате.mp3
Формат : MPEG Audio
Размер файла : 4,74 Мбайт
Продолжительность : 2 м. 35 с.
Режим общего битрейта : Постоянный
Общий поток : 256 Кбит/сек
Альбом : Äèñêîòåêà 90õ ñ Àâòîðàäèî
Трек : Ïëà÷åò äåâóøêà â àâòîìàòå
Трек/Положение : 055
Трек/Всего : 100
Исполнитель : Åâãåíèé Îñèí
Жанр : Disco 90
Дата записи : 2013
Библиотека кодирования : LAME3.98r

Аудио
Формат : MPEG Audio
Версия формата : Version 1
Профиль формата : Layer 3
Режим : Joint stereo
Продолжительность : 2 м. 35 с.
Вид битрейта : Постоянный
Битрейт : 256 Кбит/сек
Каналы : 2 канала
Частота : 44,1 КГц
Метод сжатия : С потерями
Размер потока : 4,73 Мбайт (100%)
Библиотека кодирования : LAME3.98r
Настройки программы : -m j -V 4 -q 3 -lowpass 19.7

Общее
Полное имя : C:\Users\Андрей\Desktop\Раздачи\Disco90_Avtoradio_rus\056. Дюна и Наталья Сенчукова - Милый мой ботаник.mp3
Формат : MPEG Audio
Размер файла : 6,42 Мбайт
Продолжительность : 3 м. 30 с.
Режим общего битрейта : Постоянный
Общий поток : 256 Кбит/сек
Альбом : Äèñêîòåêà 90õ ñ Àâòîðàäèî
Трек : Ìèëûé ìîé áîòàíèê
Трек/Положение : 056
Трек/Всего : 100
Исполнитель : Äþíà è Íàòàëüÿ Ñåí÷óêîâà
Жанр : Disco 90
Дата записи : 2013
Библиотека кодирования : LAME3.98r

Аудио
Формат : MPEG Audio
Версия формата : Version 1
Профиль формата : Layer 3
Режим : Joint stereo
Продолжительность : 3 м. 30 с.
Вид битрейта : Постоянный
Битрейт : 256 Кбит/сек
Каналы : 2 канала
Частота : 44,1 КГц
Метод сжатия : С потерями
Размер потока : 6,42 Мбайт (100%)
Библиотека кодирования : LAME3.98r
Настройки программы : -m j -V 4 -q 3 -lowpass 19.7

Общее
Полное имя : C:\Users\Андрей\Desktop\Раздачи\Disco90_Avtoradio_rus\057. Лицей - Край, далёкий край.mp3
Формат : MPEG Audio
Размер файла : 6,91 Мбайт
Продолжительность : 3 м. 46 с.
Режим общего битрейта : Постоянный
Общий поток : 256 Кбит/сек
Альбом : Äèñêîòåêà 90õ ñ Àâòîðàäèî
Трек : Êðàé, äàë¸êèé êðàé
Трек/Положение : 057
Трек/Всего : 100
Исполнитель : Ëèöåé
Жанр : Disco 90
Дата записи : 2013
Библиотека кодирования : LAME3.98.2

Аудио
Формат : MPEG Audio
Версия формата : Version 1
Профиль формата : Layer 3
Режим : Joint stereo
Продолжительность : 3 м. 46 с.
Вид битрейта : Постоянный
Битрейт : 256 Кбит/сек
Каналы : 2 канала
Частота : 44,1 КГц
Метод сжатия : С потерями
Размер потока : 6,90 Мбайт (100%)
Библиотека кодирования : LAME3.98.2

Общее
Полное имя : C:\Users\Андрей\Desktop\Раздачи\Disco90_Avtoradio_rus\058. Мальчишник - Последний раз.mp3
Формат : MPEG Audio
Размер файла : 10,3 Мбайт
Продолжительность : 5 м. 37 с.
Режим общего битрейта : Постоянный
Общий поток : 256 Кбит/сек
Альбом : Äèñêîòåêà 90õ ñ Àâòîðàäèî
Трек : Ïîñëåäíèé ðàç
Трек/Положение : 058
Трек/Всего : 100
Исполнитель : Ìàëü÷èøíèê
Жанр : Disco 90
Дата записи : 2013
Библиотека кодирования : LAME3.98.2
TYER : 2012

Аудио
Формат : MPEG Audio
Версия формата : Version 1
Профиль формата : Layer 3
Режим : Joint stereo
Продолжительность : 5 м. 37 с.
Вид битрейта : Постоянный
Битрейт : 256 Кбит/сек
Каналы : 2 канала
Частота : 44,1 КГц
Метод сжатия : С потерями
Размер потока : 10,3 Мбайт (100%)
Библиотека кодирования : LAME3.98.2

Общее
Полное имя : C:\Users\Андрей\Desktop\Раздачи\Disco90_Avtoradio_rus\059. Ариана - Под Испанским Небом.mp3
Формат : MPEG Audio
Размер файла : 9,93 Мбайт
Продолжительность : 5 м. 25 с.
Режим общего битрейта : Постоянный
Общий поток : 256 Кбит/сек
Альбом : Äèñêîòåêà 90õ ñ Àâòîðàäèî
Трек : Ïîä Èñïàíñêèì Íåáîì
Трек/Положение : 059
Трек/Всего : 100
Исполнитель : Àðèàíà
Жанр : Disco 90
Дата записи : 2013
Библиотека кодирования : LAME3.98.2
TYER : 2012

Аудио
Формат : MPEG Audio
Версия формата : Version 1
Профиль формата : Layer 3
Режим : Joint stereo
Продолжительность : 5 м. 25 с.
Вид битрейта : Постоянный
Битрейт : 256 Кбит/сек
Каналы : 2 канала
Частота : 44,1 КГц
Метод сжатия : С потерями
Размер потока : 9,93 Мбайт (100%)
Библиотека кодирования : LAME3.98.2

Общее
Полное имя : C:\Users\Андрей\Desktop\Раздачи\Disco90_Avtoradio_rus\060. В. Маркин - Сиреневый Туман.mp3
Формат : MPEG Audio
Размер файла : 6,55 Мбайт
Продолжительность : 3 м. 34 с.
Режим общего битрейта : Постоянный
Общий поток : 256 Кбит/сек
Альбом : Äèñêîòåêà 90õ ñ Àâòîðàäèî
Трек : Ñèðåíåâûé Òóìàí
Трек/Положение : 060
Трек/Всего : 100
Исполнитель : Â. Ìàðêèí
Жанр : Disco 90
Дата записи : 2013
Библиотека кодирования : LAME3.98

Аудио
Формат : MPEG Audio
Версия формата : Version 1
Профиль формата : Layer 3
Режим : Joint stereo
Продолжительность : 3 м. 34 с.
Вид битрейта : Постоянный
Битрейт : 256 Кбит/сек
Каналы : 2 канала
Частота : 44,1 КГц
Метод сжатия : С потерями
Размер потока : 6,55 Мбайт (100%)
Библиотека кодирования : LAME3.98
Настройки программы : -m j -V 4 -q 3 -lowpass 19.7

Общее
Полное имя : C:\Users\Андрей\Desktop\Раздачи\Disco90_Avtoradio_rus\061. ReвольveRS - Котенок.mp3
Формат : MPEG Audio
Размер файла : 6,78 Мбайт
Продолжительность : 3 м. 42 с.
Режим общего битрейта : Постоянный
Общий поток : 256 Кбит/сек
Альбом : Äèñêîòåêà 90õ ñ Àâòîðàäèî
Трек : Êîòåíîê
Трек/Положение : 061
Трек/Всего : 100
Исполнитель : ReâîëüveRS
Жанр : Disco 90
Дата записи : 2013
Библиотека кодирования : LAME3.98r

Аудио
Формат : MPEG Audio
Версия формата : Version 1
Профиль формата : Layer 3
Режим : Joint stereo
Расширение режима : MS Stereo
Продолжительность : 3 м. 42 с.
Вид битрейта : Постоянный
Битрейт : 256 Кбит/сек
Каналы : 2 канала
Частота : 44,1 КГц
Метод сжатия : С потерями
Размер потока : 6,78 Мбайт (100%)
Библиотека кодирования : LAME3.98r
Настройки программы : -m j -V 4 -q 3 -lowpass 19.7

Общее
Полное имя : C:\Users\Андрей\Desktop\Раздачи\Disco90_Avtoradio_rus\062. Юра Шатунов - Седая ночь.mp3
Формат : MPEG Audio
Размер файла : 10,2 Мбайт
Продолжительность : 5 м. 35 с.
Режим общего битрейта : Постоянный
Общий поток : 256 Кбит/сек
Альбом : Äèñêîòåêà 90õ ñ Àâòîðàäèî
Трек : Ñåäàÿ íî÷ü
Трек/Положение : 062
Трек/Всего : 100
Исполнитель : Þðà Øàòóíîâ
Жанр : Disco 90
Дата записи : 2013
Библиотека кодирования : LAME3.98.2

Аудио
Формат : MPEG Audio
Версия формата : Version 1
Профиль формата : Layer 3
Режим : Joint stereo
Расширение режима : MS Stereo
Продолжительность : 5 м. 35 с.
Вид битрейта : Постоянный
Битрейт : 256 Кбит/сек
Каналы : 2 канала
Частота : 44,1 КГц
Метод сжатия : С потерями
Размер потока : 10,2 Мбайт (100%)
Библиотека кодирования : LAME3.98.2

Общее
Полное имя : C:\Users\Андрей\Desktop\Раздачи\Disco90_Avtoradio_rus\063. Reflex - Падали звезды.mp3
Формат : MPEG Audio
Размер файла : 6,57 Мбайт
Продолжительность : 3 м. 35 с.
Режим общего битрейта : Постоянный
Общий поток : 256 Кбит/сек
Альбом : Äèñêîòåêà 90õ ñ Àâòîðàäèî
Трек : Ïàäàëè çâåçäû
Трек/Положение : 063
Трек/Всего : 100
Исполнитель : Reflex
Жанр : Disco 90
Дата записи : 2013
Библиотека кодирования : LAME3.98r

Аудио
Формат : MPEG Audio
Версия формата : Version 1
Профиль формата : Layer 3
Режим : Joint stereo
Продолжительность : 3 м. 35 с.
Вид битрейта : Постоянный
Битрейт : 256 Кбит/сек
Каналы : 2 канала
Частота : 44,1 КГц
Метод сжатия : С потерями
Размер потока : 6,57 Мбайт (100%)
Библиотека кодирования : LAME3.98r
Настройки программы : -m j -V 4 -q 3 -lowpass 19.7

Общее
Полное имя : C:\Users\Андрей\Desktop\Раздачи\Disco90_Avtoradio_rus\064. Света - Целуемся.mp3
Формат : MPEG Audio
Размер файла : 6,43 Мбайт
Продолжительность : 3 м. 30 с.
Режим общего битрейта : Постоянный
Общий поток : 256 Кбит/сек
Альбом : Äèñêîòåêà 90õ ñ Àâòîðàäèî
Трек : Öåëóåìñÿ
Трек/Положение : 064
Трек/Всего : 100
Исполнитель : Ñâåòà
Жанр : Disco 90
Дата записи : 2013
Библиотека кодирования : LAME3.98.2
TYER : 2012

Аудио
Формат : MPEG Audio
Версия формата : Version 1
Профиль формата : Layer 3
Режим : Joint stereo
Продолжительность : 3 м. 30 с.
Вид битрейта : Постоянный
Битрейт : 256 Кбит/сек
Каналы : 2 канала
Частота : 44,1 КГц
Метод сжатия : С потерями
Размер потока : 6,43 Мбайт (100%)
Библиотека кодирования : LAME3.98.2

Общее
Полное имя : C:\Users\Андрей\Desktop\Раздачи\Disco90_Avtoradio_rus\065. Технология - Странные танцы.mp3
Формат : MPEG Audio
Размер файла : 9,00 Мбайт
Продолжительность : 4 м. 54 с.
Режим общего битрейта : Постоянный
Общий поток : 256 Кбит/сек
Альбом : Äèñêîòåêà 90õ ñ Àâòîðàäèî
Трек : Ñòðàííûå òàíöû
Трек/Положение : 065
Трек/Всего : 100
Исполнитель : Òåõíîëîãèÿ
Жанр : Disco 90
Дата записи : 2013
Библиотека кодирования : LAME3.98.2

Аудио
Формат : MPEG Audio
Версия формата : Version 1
Профиль формата : Layer 3
Режим : Joint stereo
Продолжительность : 4 м. 54 с.
Вид битрейта : Постоянный
Битрейт : 256 Кбит/сек
Каналы : 2 канала
Частота : 44,1 КГц
Метод сжатия : С потерями
Размер потока : 8,99 Мбайт (100%)
Библиотека кодирования : LAME3.98.2

Общее
Полное имя : C:\Users\Андрей\Desktop\Раздачи\Disco90_Avtoradio_rus\066. Жасмин - Перепишу Любовь.mp3
Формат : MPEG Audio
Размер файла : 6,74 Мбайт
Продолжительность : 3 м. 40 с.
Режим общего битрейта : Постоянный
Общий поток : 256 Кбит/сек
Альбом : Äèñêîòåêà 90õ ñ Àâòîðàäèî
Трек : Ïåðåïèøó Ëþáîâü
Трек/Положение : 066
Трек/Всего : 100
Исполнитель : Æàñìèí
Жанр : Disco 90
Дата записи : 2013
Библиотека кодирования : LAME3.98.2
TYER : 2012

Аудио
Формат : MPEG Audio
Версия формата : Version 1
Профиль формата : Layer 3
Режим : Joint stereo
Продолжительность : 3 м. 41 с.
Вид битрейта : Постоянный
Битрейт : 256 Кбит/сек
Каналы : 2 канала
Частота : 44,1 КГц
Метод сжатия : С потерями
Размер потока : 6,74 Мбайт (100%)
Библиотека кодирования : LAME3.98.2

Общее
Полное имя : C:\Users\Андрей\Desktop\Раздачи\Disco90_Avtoradio_rus\067. К.Метов - Вспоминай Меня.mp3
Формат : MPEG Audio
Размер файла : 5,62 Мбайт
Продолжительность : 3 м. 4 с.
Режим общего битрейта : Постоянный
Общий поток : 256 Кбит/сек
Альбом : Äèñêîòåêà 90õ ñ Àâòîðàäèî
Трек : Âñïîìèíàé Ìåíÿ
Трек/Положение : 067
Трек/Всего : 100
Исполнитель : Ê.Ìåòîâ
Жанр : Disco 90
Дата записи : 2013
Библиотека кодирования : LAME3.92ЄЄЄЄЄЄЄЄЄЄЄЄ

Аудио
Формат : MPEG Audio
Версия формата : Version 1
Профиль формата : Layer 3
Продолжительность : 3 м. 4 с.
Вид битрейта : Постоянный
Битрейт : 256 Кбит/сек
Каналы : 2 канала
Частота : 44,1 КГц
Метод сжатия : С потерями
Размер потока : 5,62 Мбайт (100%)
Библиотека кодирования : LAME3.92ЄЄЄЄЄЄЄЄЄЄЄЄ

Общее
Полное имя : C:\Users\Андрей\Desktop\Раздачи\Disco90_Avtoradio_rus\068. Анжелика Варум - Зимняя вишня.mp3
Формат : MPEG Audio
Размер файла : 5,63 Мбайт
Продолжительность : 3 м. 4 с.
Режим общего битрейта : Постоянный
Общий поток : 256 Кбит/сек
Альбом : Äèñêîòåêà 90õ ñ Àâòîðàäèî
Трек : Çèìíÿÿ âèøíÿ
Трек/Положение : 068
Трек/Всего : 100
Исполнитель : Àíæåëèêà Âàðóì
Жанр : Disco 90
Дата записи : 2013
Библиотека кодирования : LAMEЄ

Аудио
Формат : MPEG Audio
Версия формата : Version 1
Профиль формата : Layer 3
Режим : Joint stereo
Продолжительность : 3 м. 4 с.
Вид битрейта : Постоянный
Битрейт : 256 Кбит/сек
Каналы : 2 канала
Частота : 44,1 КГц
Метод сжатия : С потерями
Размер потока : 5,62 Мбайт (100%)
Библиотека кодирования : LAMEЄ

Общее
Полное имя : C:\Users\Андрей\Desktop\Раздачи\Disco90_Avtoradio_rus\069. О. Капуро - Живи Родник.mp3
Формат : MPEG Audio
Размер файла : 5,53 Мбайт
Продолжительность : 3 м. 1 с.
Режим общего битрейта : Постоянный
Общий поток : 256 Кбит/сек
Альбом : Äèñêîòåêà 90õ ñ Àâòîðàäèî
Трек : Æèâè Ðîäíèê
Трек/Положение : 069
Трек/Всего : 100
Исполнитель : Î. Êàïóðî
Жанр : Disco 90
Дата записи : 2013
Библиотека кодирования : LAME3.98

Аудио
Формат : MPEG Audio
Версия формата : Version 1
Профиль формата : Layer 3
Режим : Joint stereo
Продолжительность : 3 м. 1 с.
Вид битрейта : Постоянный
Битрейт : 256 Кбит/сек
Каналы : 2 канала
Частота : 44,1 КГц
Метод сжатия : С потерями
Размер потока : 5,52 Мбайт (100%)
Библиотека кодирования : LAME3.98
Настройки программы : -m j -V 4 -q 3 -lowpass 19.7

Общее
Полное имя : C:\Users\Андрей\Desktop\Раздачи\Disco90_Avtoradio_rus\070. Кар-Мэн - Чио Чио Сан.mp3
Формат : MPEG Audio
Размер файла : 6,87 Мбайт
Продолжительность : 3 м. 45 с.
Режим общего битрейта : Постоянный
Общий поток : 256 Кбит/сек
Альбом : Äèñêîòåêà 90õ ñ Àâòîðàäèî
Трек : ×èî ×èî Ñàí
Трек/Положение : 070
Трек/Всего : 100
Исполнитель : Êàð-Ìýí
Жанр : Disco 90
Дата записи : 2013
Библиотека кодирования : LAME3.93

Аудио
Формат : MPEG Audio
Версия формата : Version 1
Профиль формата : Layer 3
Продолжительность : 3 м. 45 с.
Вид битрейта : Постоянный
Битрейт : 256 Кбит/сек
Каналы : 2 канала
Частота : 44,1 КГц
Метод сжатия : С потерями
Размер потока : 6,87 Мбайт (100%)
Библиотека кодирования : LAME3.93

Общее
Полное имя : C:\Users\Андрей\Desktop\Раздачи\Disco90_Avtoradio_rus\071. Hi-Fi - Седьмой лепесток.mp3
Формат : MPEG Audio
Размер файла : 5,76 Мбайт
Продолжительность : 3 м. 8 с.
Режим общего битрейта : Постоянный
Общий поток : 256 Кбит/сек
Альбом : Äèñêîòåêà 90õ ñ Àâòîðàäèî
Трек : Ñåäüìîé ëåïåñòîê
Трек/Положение : 071
Трек/Всего : 100
Исполнитель : Hi-Fi
Жанр : Disco 90
Дата записи : 2013
Библиотека кодирования : LAME3.98r

Аудио
Формат : MPEG Audio
Версия формата : Version 1
Профиль формата : Layer 3
Режим : Joint stereo
Продолжительность : 3 м. 8 с.
Вид битрейта : Постоянный
Битрейт : 256 Кбит/сек
Каналы : 2 канала
Частота : 44,1 КГц
Метод сжатия : С потерями
Размер потока : 5,75 Мбайт (100%)
Библиотека кодирования : LAME3.98r
Настройки программы : -m j -V 4 -q 3 -lowpass 19.7

Общее
Полное имя : C:\Users\Андрей\Desktop\Раздачи\Disco90_Avtoradio_rus\072. Ляпис Трубецкой & Karapuzikee - Любовь повернулась ко мне задом (Karapuzikee Mix).mp3
Формат : MPEG Audio
Размер файла : 6,58 Мбайт
Продолжительность : 3 м. 35 с.
Режим общего битрейта : Постоянный
Общий поток : 256 Кбит/сек
Альбом : Äèñêîòåêà 90õ ñ Àâòîðàäèî
Трек : Ëþáîâü ïîâåðíóëàñü êî ìíå çàäîì (Karapuzikee Mix)
Трек/Положение : 072
Трек/Всего : 100
Исполнитель : Ëÿïèñ Òðóáåöêîé & Karapuzikee
Жанр : Disco 90
Дата записи : 2013
Библиотека кодирования : LAME3.98r

Аудио
Формат : MPEG Audio
Версия формата : Version 1
Профиль формата : Layer 3
Режим : Joint stereo
Продолжительность : 3 м. 35 с.
Вид битрейта : Постоянный
Битрейт : 256 Кбит/сек
Каналы : 2 канала
Частота : 44,1 КГц
Метод сжатия : С потерями
Размер потока : 6,58 Мбайт (100%)
Библиотека кодирования : LAME3.98r
Настройки программы : -m j -V 4 -q 3 -lowpass 19.7

Общее
Полное имя : C:\Users\Андрей\Desktop\Раздачи\Disco90_Avtoradio_rus\073. Ляпис Трубецкой - Яблони.mp3
Формат : MPEG Audio
Размер файла : 10,2 Мбайт
Продолжительность : 5 м. 34 с.
Режим общего битрейта : Постоянный
Общий поток : 256 Кбит/сек
Альбом : Äèñêîòåêà 90õ ñ Àâòîðàäèî
Трек : ßáëîíè
Трек/Положение : 073
Трек/Всего : 100
Исполнитель : Ëÿïèñ Òðóáåöêîé
Жанр : Disco 90
Дата записи : 2013
Библиотека кодирования : LAME3.98.2
TYER : 2012

Аудио
Формат : MPEG Audio
Версия формата : Version 1
Профиль формата : Layer 3
Режим : Joint stereo
Продолжительность : 5 м. 34 с.
Вид битрейта : Постоянный
Битрейт : 256 Кбит/сек
Каналы : 2 канала
Частота : 44,1 КГц
Метод сжатия : С потерями
Размер потока : 10,2 Мбайт (100%)
Библиотека кодирования : LAME3.98.2

Общее
Полное имя : C:\Users\Андрей\Desktop\Раздачи\Disco90_Avtoradio_rus\074. Шура - Не верь слезам.mp3
Формат : MPEG Audio
Размер файла : 5,77 Мбайт
Продолжительность : 3 м. 8 с.
Режим общего битрейта : Постоянный
Общий поток : 256 Кбит/сек
Альбом : Äèñêîòåêà 90õ ñ Àâòîðàäèî
Трек : Íå âåðü ñëåçàì
Трек/Положение : 074
Трек/Всего : 100
Исполнитель : Øóðà
Жанр : Disco 90
Дата записи : 2013
Библиотека кодирования : LAME3.98.2

Аудио
Формат : MPEG Audio
Версия формата : Version 1
Профиль формата : Layer 3
Режим : Joint stereo
Расширение режима : MS Stereo
Продолжительность : 3 м. 9 с.
Вид битрейта : Постоянный
Битрейт : 256 Кбит/сек
Каналы : 2 канала
Частота : 44,1 КГц
Метод сжатия : С потерями
Размер потока : 5,76 Мбайт (100%)
Библиотека кодирования : LAME3.98.2

Общее
Полное имя : C:\Users\Андрей\Desktop\Раздачи\Disco90_Avtoradio_rus\075. A'Studio - Нелюбимая.mp3
Формат : MPEG Audio
Размер файла : 6,43 Мбайт
Продолжительность : 3 м. 30 с.
Режим общего битрейта : Постоянный
Общий поток : 256 Кбит/сек
Альбом : Äèñêîòåêà 90õ ñ Àâòîðàäèî
Трек : Íåëþáèìàÿ
Трек/Положение : 075
Трек/Всего : 100
Исполнитель : A'Studio
Жанр : Disco 90
Дата записи : 2013
Библиотека кодирования : LAME3.98.2
TYER : 2012

Аудио
Формат : MPEG Audio
Версия формата : Version 1
Профиль формата : Layer 3
Режим : Joint stereo
Продолжительность : 3 м. 30 с.
Вид битрейта : Постоянный
Битрейт : 256 Кбит/сек
Каналы : 2 канала
Частота : 44,1 КГц
Метод сжатия : С потерями
Размер потока : 6,43 Мбайт (100%)
Библиотека кодирования : LAME3.98.2

Общее
Полное имя : C:\Users\Андрей\Desktop\Раздачи\Disco90_Avtoradio_rus\076. Кристина Орбакайте и Авраам Руссо - Просто любить тебя.mp3
Формат : MPEG Audio
Размер файла : 6,69 Мбайт
Продолжительность : 3 м. 39 с.
Режим общего битрейта : Постоянный
Общий поток : 256 Кбит/сек
Альбом : Äèñêîòåêà 90õ ñ Àâòîðàäèî
Трек : Ïðîñòî ëþáèòü òåáÿ
Трек/Положение : 076
Трек/Всего : 100
Исполнитель : Êðèñòèíà Îðáàêàéòå è Àâðààì Ðóññî
Жанр : Disco 90
Дата записи : 2013
Библиотека кодирования : LAME3.98r

Аудио
Формат : MPEG Audio
Версия формата : Version 1
Профиль формата : Layer 3
Режим : Joint stereo
Продолжительность : 3 м. 39 с.
Вид битрейта : Постоянный
Битрейт : 256 Кбит/сек
Каналы : 2 канала
Частота : 44,1 КГц
Метод сжатия : С потерями
Размер потока : 6,69 Мбайт (100%)
Библиотека кодирования : LAME3.98r
Настройки программы : -m j -V 4 -q 3 -lowpass 19.7

Общее
Полное имя : C:\Users\Андрей\Desktop\Раздачи\Disco90_Avtoradio_rus\077. Руки вверх - Танцуй.mp3
Формат : MPEG Audio
Размер файла : 6,73 Мбайт
Продолжительность : 3 м. 40 с.
Режим общего битрейта : Постоянный
Общий поток : 256 Кбит/сек
Альбом : Äèñêîòåêà 90õ ñ Àâòîðàäèî
Трек : Òàíöóé
Трек/Положение : 077
Трек/Всего : 100
Исполнитель : Ðóêè ââåðõ
Жанр : Disco 90
Дата записи : 2013
Библиотека кодирования : LAME3.98r

Аудио
Формат : MPEG Audio
Версия формата : Version 1
Профиль формата : Layer 3
Режим : Joint stereo
Продолжительность : 3 м. 40 с.
Вид битрейта : Постоянный
Битрейт : 256 Кбит/сек
Каналы : 2 канала
Частота : 44,1 КГц
Метод сжатия : С потерями
Размер потока : 6,73 Мбайт (100%)
Библиотека кодирования : LAME3.98r
Настройки программы : -m j -V 4 -q 3 -lowpass 19.7

Общее
Полное имя : C:\Users\Андрей\Desktop\Раздачи\Disco90_Avtoradio_rus\078. Отпетые Мошенники - А у реки.mp3
Формат : MPEG Audio
Размер файла : 6,87 Мбайт
Продолжительность : 3 м. 45 с.
Режим общего битрейта : Постоянный
Общий поток : 256 Кбит/сек
Альбом : Äèñêîòåêà 90õ ñ Àâòîðàäèî
Трек : À ó ðåêè
Трек/Положение : 078
Трек/Всего : 100
Исполнитель : Îòïåòûå Ìîøåííèêè
Жанр : Disco 90
Дата записи : 2013
Библиотека кодирования : LAME3.98r

Аудио
Формат : MPEG Audio
Версия формата : Version 1
Профиль формата : Layer 3
Режим : Joint stereo
Продолжительность : 3 м. 45 с.
Вид битрейта : Постоянный
Битрейт : 256 Кбит/сек
Каналы : 2 канала
Частота : 44,1 КГц
Метод сжатия : С потерями
Размер потока : 6,87 Мбайт (100%)
Библиотека кодирования : LAME3.98r
Настройки программы : -m j -V 4 -q 3 -lowpass 19.7

Общее
Полное имя : C:\Users\Андрей\Desktop\Раздачи\Disco90_Avtoradio_rus\079. Евгения Малахова - Мама.mp3
Формат : MPEG Audio
Размер файла : 6,24 Мбайт
Продолжительность : 3 м. 24 с.
Режим общего битрейта : Постоянный
Общий поток : 256 Кбит/сек
Альбом : Äèñêîòåêà 90õ ñ Àâòîðàäèî
Трек : Ìàìà
Трек/Положение : 079
Трек/Всего : 100
Исполнитель : Åâãåíèÿ Ìàëàõîâà
Жанр : Disco 90
Дата записи : 2013
Библиотека кодирования : LAME3.98.2ЄЄЄЄЄЄЄЄЄЄ
TYER : 2012

Аудио
Формат : MPEG Audio
Версия формата : Version 1
Профиль формата : Layer 3
Режим : Joint stereo
Продолжительность : 3 м. 24 с.
Вид битрейта : Постоянный
Битрейт : 256 Кбит/сек
Каналы : 2 канала
Частота : 44,1 КГц
Метод сжатия : С потерями
Размер потока : 6,24 Мбайт (100%)
Библиотека кодирования : LAME3.98.2ЄЄЄЄЄЄЄЄЄЄ

Общее
Полное имя : C:\Users\Андрей\Desktop\Раздачи\Disco90_Avtoradio_rus\080. Линда - Мало огня.mp3
Формат : MPEG Audio
Размер файла : 10,1 Мбайт
Продолжительность : 5 м. 32 с.
Режим общего битрейта : Постоянный
Общий поток : 256 Кбит/сек
Альбом : Äèñêîòåêà 90õ ñ Àâòîðàäèî
Трек : Ìàëî îãíÿ
Трек/Положение : 080
Трек/Всего : 100
Исполнитель : Ëèíäà
Жанр : Disco 90
Дата записи : 2013
Библиотека кодирования : LAME3.98.2

Аудио
Формат : MPEG Audio
Версия формата : Version 1
Профиль формата : Layer 3
Режим : Joint stereo
Продолжительность : 5 м. 32 с.
Вид битрейта : Постоянный
Битрейт : 256 Кбит/сек
Каналы : 2 канала
Частота : 44,1 КГц
Метод сжатия : С потерями
Размер потока : 10,1 Мбайт (100%)
Библиотека кодирования : LAME3.98.2

Общее
Полное имя : C:\Users\Андрей\Desktop\Раздачи\Disco90_Avtoradio_rus\081. А-Студио - Джулия.mp3
Формат : MPEG Audio
Размер файла : 9,04 Мбайт
Продолжительность : 4 м. 56 с.
Режим общего битрейта : Постоянный
Общий поток : 256 Кбит/сек
Альбом : Äèñêîòåêà 90õ ñ Àâòîðàäèî
Трек : Äæóëèÿ
Трек/Положение : 081
Трек/Всего : 100
Исполнитель : À-Ñòóäèî
Жанр : Disco 90
Дата записи : 2013
Библиотека кодирования : LAME3.98.2

Аудио
Формат : MPEG Audio
Версия формата : Version 1
Профиль формата : Layer 3
Режим : Joint stereo
Продолжительность : 4 м. 56 с.
Вид битрейта : Постоянный
Битрейт : 256 Кбит/сек
Каналы : 2 канала
Частота : 44,1 КГц
Метод сжатия : С потерями
Размер потока : 9,04 Мбайт (100%)
Библиотека кодирования : LAME3.98.2

Общее
Полное имя : C:\Users\Андрей\Desktop\Раздачи\Disco90_Avtoradio_rus\082. Вирус - Нежное солнышко.mp3
Формат : MPEG Audio
Размер файла : 5,67 Мбайт
Продолжительность : 3 м. 5 с.
Режим общего битрейта : Постоянный
Общий поток : 256 Кбит/сек
Альбом : Äèñêîòåêà 90õ ñ Àâòîðàäèî
Трек : Íåæíîå ñîëíûøêî
Трек/Положение : 082
Трек/Всего : 100
Исполнитель : Âèðóñ
Жанр : Disco 90
Дата записи : 2013
Библиотека кодирования : LAME3.98r

Аудио
Формат : MPEG Audio
Версия формата : Version 1
Профиль формата : Layer 3
Режим : Joint stereo
Продолжительность : 3 м. 5 с.
Вид битрейта : Постоянный
Битрейт : 256 Кбит/сек
Каналы : 2 канала
Частота : 44,1 КГц
Метод сжатия : С потерями
Размер потока : 5,66 Мбайт (100%)
Библиотека кодирования : LAME3.98r
Настройки программы : -m j -V 4 -q 3 -lowpass 19.7

Общее
Полное имя : C:\Users\Андрей\Desktop\Раздачи\Disco90_Avtoradio_rus\083. Мурат Насыров - Мальчик хочет в Тамбов.mp3
Формат : MPEG Audio
Размер файла : 6,27 Мбайт
Продолжительность : 3 м. 25 с.
Режим общего битр ейта : Постоянный
Общий поток : 256 Кбит/сек
Альбом : Äèñêîòåêà 90õ ñ Àâòîðàäèî
Трек : Ìàëü÷èê õî÷åò â Òàìáîâ
Трек/Положение : 083
Трек/Всего : 100
Исполнитель : Ìóðàò Íàñûðîâ
Жанр : Disco 90
Дата записи : 2013
Библиотека кодирования : LAME3.98.@

Аудио
Формат : MPEG Audio
Версия формата : Version 1
Профиль формата : Layer 3
Режим : Joint stereo
Расширение режима : MS Stereo
Продолжительность : 3 м. 25 с.
Вид битрейта : Постоянный
Битрейт : 256 Кбит/сек
Каналы : 2 канала
Частота : 44,1 КГц
Метод сжатия : С потерями
Размер потока : 6,26 Мбайт (100%)
Библиотека кодирования : LAME3.98.@

Общее
Полное имя : C:\Users\Андрей\Desktop\Раздачи\Disco90_Avtoradio_rus\084. Сладкий Сон - На Белом Покрывале Января.mp3
Формат : MPEG Audio
Размер файла : 10,3 Мбайт
Продолжительность : 5 м. 37 с.
Режим общего битрейта : Постоянный
Общий поток : 256 Кбит/сек
Альбом : Äèñêîòåêà 90õ ñ Àâòîðàäèî
Трек : Íà Áåëîì Ïîêðûâàëå ßíâàðÿ
Трек/Положение : 084
Трек/Всего : 100
Исполнитель : Ñëàäêèé Ñîí
Жанр : Disco 90
Дата записи : 2013
Библиотека кодирования : LAME3.98

Аудио
Формат : MPEG Audio
Версия формата : Version 1
Профиль формата : Layer 3
Режим : Joint stereo
Продолжительность : 5 м. 38 с.
Вид битрейта : Постоянный
Битрейт : 256 Кбит/сек
Каналы : 2 канала
Частота : 44,1 КГц
Метод сжатия : С потерями
Размер потока : 10,3 Мбайт (100%)
Библиотека кодирования : LAME3.98
Настройки программы : -m j -V 4 -q 3 -lowpass 19.7

Общее
Полное имя : C:\Users\Андрей\Desktop\Раздачи\Disco90_Avtoradio_rus\085. И. Саруханов - Заглянул В Почтовый Ящик.mp3
Формат : MPEG Audio
Размер файла : 6,29 Мбайт
Продолжительность : 3 м. 26 с.
Режим общего битрейта : Постоянный
Общий поток : 256 Кбит/сек
Альбом : Äèñêîòåêà 90õ ñ Àâòîðàäèî
Трек : Çàãëÿíóë Â Ïî÷òîâûé ßùèê
Трек/Положение : 085
Трек/Всего : 100
Исполнитель : È. Ñàðóõàíîâ
Жанр : Disco 90
Дата записи : 2013
Библиотека кодирования : LAME3.98

Аудио
Формат : MPEG Audio
Версия формата : Version 1
Профиль формата : Layer 3
Режим : Joint stereo
Продолжительность : 3 м. 26 с.
Вид битрейта : Постоянный
Битрейт : 256 Кбит/сек
Каналы : 2 канала
Частота : 44,1 КГц
Метод сжатия : С потерями
Размер потока : 6,29 Мбайт (100%)
Библиотека кодирования : LAME3.98
Настройки программы : -m j -V 4 -q 3 -lowpass 19.7

Общее
Полное имя : C:\Users\Андрей\Desktop\Раздачи\Disco90_Avtoradio_rus\086. Иванушки Int. - Я люблю.mp3
Формат : MPEG Audio
Размер файла : 6,89 Мбайт
Продолжительность : 3 м. 45 с.
Режим общего битрейта : Постоянный
Общий поток : 256 Кбит/сек
Альбом : Äèñêîòåêà 90õ ñ Àâòîðàäèî
Трек : ß ëþáëþ
Трек/Положение : 086
Трек/Всего : 100
Исполнитель : Èâàíóøêè Int.
Жанр : Disco 90
Дата записи : 2013
Библиотека кодирования : LAME3.98r

Аудио
Формат : MPEG Audio
Версия формата : Version 1
Профиль формата : Layer 3
Режим : Joint stereo
Продолжительность : 3 м. 46 с.
Вид битрейта : Постоянный
Битрейт : 256 Кбит/сек
Каналы : 2 канала
Частота : 44,1 КГц
Метод сжатия : С потерями
Размер потока : 6,89 Мбайт (100%)
Библиотека кодирования : LAME3.98r
Настройки программы : -m j -V 4 -q 3 -lowpass 19.7

Общее
Полное имя : C:\Users\Андрей\Desktop\Раздачи\Disco90_Avtoradio_rus\087. Небо - Обещала.mp3
Формат : MPEG Audio
Размер файла : 6,44 Мбайт
Продолжительность : 3 м. 31 с.
Режим общего битрейта : Постоянный
Общий поток : 256 Кбит/сек
Альбом : Äèñêîòåêà 90õ ñ Àâòîðàäèî
Трек : Îáåùàëà
Трек/Положение : 087
Трек/Всего : 100
Исполнитель : Íåáî
Жанр : Disco 90
Дата записи : 2013
Библиотека кодирования : LAME3.98r

Аудио
Формат : MPEG Audio
Версия формата : Version 1
Профиль формата : Layer 3
Режим : Joint stereo
Продолжительность : 3 м. 31 с.
Вид битрейта : Постоянный
Битрейт : 256 Кбит/сек
Каналы : 2 канала
Частота : 44,1 КГц
Метод сжатия : С потерями
Размер потока : 6,44 Мбайт (100%)
Библиотека кодирования : LAME3.98r
Настройки программы : -m j -V 4 -q 3 -lowpass 19.7

Общее
Полное имя : C:\Users\Андрей\Desktop\Раздачи\Disco90_Avtoradio_rus\088. К. Никольский - Музыкант.mp3
Формат : MPEG Audio
Размер файла : 9,67 Мбайт
Продолжительность : 5 м. 16 с.
Режим общего битрейта : Постоянный
Общий поток : 256 Кбит/сек
Альбом : Äèñêîòåêà 90õ ñ Àâòîðàäèî
Трек : Ìóçûêàíò
Трек/Положение : 088
Трек/Всего : 100
Исполнитель : Ê. Íèêîëüñêèé
Жанр : Disco 90
Дата записи : 2013
Библиотека кодирования : LAME3.98

Аудио
Формат : MPEG Audio
Версия формата : Version 1
Профиль формата : Layer 3
Режим : Joint stereo
Продолжительность : 5 м. 17 с.
Вид битрейта : Постоянный
Битрейт : 256 Кбит/сек
Каналы : 2 канала
Частота : 44,1 КГц
Метод сжатия : С потерями
Размер потока : 9,67 Мбайт (100%)
Библиотека кодирования : LAME3.98
Настройки программы : -m j -V 4 -q 3 -lowpass 19.7

Общее
Полное имя : C:\Users\Андрей\Desktop\Раздачи\Disco90_Avtoradio_rus\089. Мираж - Я Не Хочу.mp3
Формат : MPEG Audio
Размер файла : 5,43 Мбайт
Продолжительность : 2 м. 57 с.
Режим общего битрейта : Постоянный
Общий поток : 256 Кбит/сек
Альбом : Äèñêîòåêà 90õ ñ Àâòîðàäèî
Трек : ß Íå Õî÷ó
Трек/Положение : 089
Трек/Всего : 100
Исполнитель : Ìèðàæ
Жанр : Disco 90
Дата записи : 2013
Библиотека кодирования : LAME3.98

Аудио
Формат : MPEG Audio
Версия формата : Version 1
Профиль формата : Layer 3
Режим : Joint stereo
Продолжительность : 2 м. 58 с.
Вид битрейта : Постоянный
Битрейт : 256 Кбит/сек
Каналы : 2 канала
Частота : 44,1 КГц
Метод сжатия : С потерями
Размер потока : 5,43 Мбайт (100%)
Библиотека кодирования : LAME3.98
Настройки программы : -m j -V 4 -q 3 -lowpass 19.7

Общее
Полное имя : C:\Users\Андрей\Desktop\Раздачи\Disco90_Avtoradio_rus\090. Loris feat. Джимми - Миражи (Remix).mp3
Формат : MPEG Audio
Размер файла : 5,26 Мбайт
Продолжительность : 2 м. 52 с.
Режим общего битрейта : Постоянный
Общий поток : 256 Кбит/сек
Альбом : Äèñêîòåêà 90õ ñ Àâòîðàäèî
Трек : Ìèðàæè (Remix)
Трек/Положение : 090
Трек/Всего : 100
Исполнитель : Loris feat. Äæèììè
Жанр : Disco 90
Дата записи : 2013
Библиотека кодирования : LAME3.98r

Аудио
Формат : MPEG Audio
Версия формата : Version 1
Профиль формата : Layer 3
Режим : Joint stereo
Расширение режима : MS Stereo
Продолжительность : 2 м. 52 с.
Вид битрейта : Постоянный
Битрейт : 256 Кбит/сек
Каналы : 2 канала
Частота : 44,1 КГц
Метод сжатия : С потерями
Размер потока : 5,26 Мбайт (100%)
Библиотека кодирования : LAME3.98r
Настройки программы : -m j -V 4 -q 3 -lowpass 19.7

Общее
Полное имя : C:\Users\Андрей\Desktop\Раздачи\Disco90_Avtoradio_rus\091. Лена Перова - Шум Дождя.mp3
Формат : MPEG Audio
Размер файла : 6,08 Мбайт
Продолжительность : 3 м. 19 с.
Режим общего битрейта : Постоянный
Общий поток : 256 Кбит/сек
Альбом : Äèñêîòåêà 90õ ñ Àâòîðàäèî
Трек : Øóì Äîæäÿ
Трек/Положение : 091
Трек/Всего : 100
Исполнитель : Ëåíà Ïåðîâà
Жанр : Disco 90
Дата записи : 2013
Библиотека кодирования : LAME3.98.2
TYER : 2012

Аудио
Формат : MPEG Audio
Версия формата : Version 1
Профиль формата : Layer 3
Режим : Joint stereo
Расширение режима : MS Stereo
Продолжительность : 3 м. 19 с.
Вид битрейта : Постоянный
Битрейт : 256 Кбит/сек
Каналы : 2 канала
Частота : 44,1 КГц
Метод сжатия : С потерями
Размер потока : 6,08 Мбайт (100%)
Библиотека кодирования : LAME3.98.2

Общее
Полное имя : C:\Users\Андрей\Desktop\Раздачи\Disco90_Avtoradio_rus\092. Сплин - Орбит Без Сахара.mp3
Формат : MPEG Audio
Размер файла : 4,22 Мбайт
Продолжительность : 2 м. 18 с.
Режим общего битрейта : Постоянный
Общий поток : 256 Кбит/сек
Альбом : Äèñêîòåêà 90õ ñ Àâòîðàäèî
Трек : Îðáèò Áåç Ñàõàðà
Трек/Положение : 092
Трек/Всего : 100
Исполнитель : Ñïëèí
Жанр : Disco 90
Дата записи : 2013
Библиотека кодирования : LAME3.98.2
TYER : 2012

Аудио
Формат : MPEG Audio
Версия формата : Version 1
Профиль формата : Layer 3
Режим : Joint stereo
Продолжительность : 2 м. 18 с.
Вид битрейта : Постоянный
Битрейт : 256 Кбит/сек
Каналы : 2 канала
Частота : 44,1 КГц
Метод сжатия : С потерями
Размер потока : 4,22 Мбайт (100%)
Библиотека кодирования : LAME3.98.2

Общее
Полное имя : C:\Users\Андрей\Desktop\Раздачи\Disco90_Avtoradio_rus\093. Восток - Миражи.mp3
Формат : MPEG Audio
Размер файла : 6,50 Мбайт
Продолжительность : 3 м. 32 с.
Режим общего битрейта : Постоянный
Общий поток : 256 Кбит/сек
Альбом : Äèñêîòåêà 90õ ñ Àâòîðàäèî
Трек : Ìèðàæè
Трек/Положение : 093
Трек/Всего : 100
Исполнитель : Âîñòîê
Жанр : Disco 90
Дата записи : 2013
Библиотека кодирования : LAME3.98.2

Аудио
Формат : MPEG Audio
Версия формата : Version 1
Профиль формата : Layer 3
Режим : Joint stereo
Продолжительность : 3 м. 33 с.
Вид битрейта : Постоянный
Битрейт : 256 Кбит/сек
Каналы : 2 канала
Частота : 44,1 КГц
Метод сжатия : С потерями
Размер потока : 6,50 Мбайт (100%)
Библиотека кодирования : LAME3.98.2

Общее
Полное имя : C:\Users\Андрей\Desktop\Раздачи\Disco90_Avtoradio_rus\094. А. Вески - Остров Любви.mp3
Формат : MPEG Audio
Размер файла : 6,71 Мбайт
Продолжительность : 3 м. 39 с.
Режим общего битрейта : Постоянный
Общий поток : 256 Кбит/сек
Альбом : Äèñêîòåêà 90õ ñ Àâòîðàäèî
Трек : Îñòðîâ Ëþáâè
Трек/Положение : 094
Трек/Всего : 100
Исполнитель : À. Âåñêè
Жанр : Disco 90
Дата записи : 2013
Библиотека кодирования : LAME3.98

Аудио
Формат : MPEG Audio
Версия формата : Version 1
Профиль формата : Layer 3
Режим : Joint stereo
Расширение режима : MS Stereo
Продолжительность : 3 м. 39 с.
Вид битрейта : Постоянный
Битрейт : 256 Кбит/сек
Каналы : 2 канала
Частота : 44,1 КГц
Метод сжатия : С потерями
Размер потока : 6,70 Мбайт (100%)
Библиотека кодирования : LAME3.98
Настройки программы : -m j -V 4 -q 3 -lowpass 19.7

Общее
Полное имя : C:\Users\Андрей\Desktop\Раздачи\Disco90_Avtoradio_rus\095. Дюна - Привет С Большого Бодуна.mp3
Формат : MPEG Audio
Размер файла : 4,08 Мбайт
Продолжительность : 2 м. 13 с.
Режим общего битрейта : Постоянный
Общий поток : 256 Кбит/сек
Альбом : Äèñêîòåêà 90õ ñ Àâòîðàäèî
Трек : Ïðèâåò Ñ Áîëüøîãî Áîäóíà
Трек/Положение : 095
Трек/Всего : 100
Исполнитель : Äþíà
Жанр : Disco 90
Дата записи : 2013
Библиотека кодирования : LAME3.98.2ЄЄЄЄЄЄЄЄЄЄ

Аудио
Формат : MPEG Audio
Версия формата : Version 1
Профиль формата : Layer 3
Режим : Joint stereo
Расширение режима : MS Stereo
Продолжительность : 2 м. 13 с.
Вид битрейта : Постоянный
Битрейт : 256 Кбит/сек
Каналы : 2 канала
Частота : 44,1 КГц
Метод сжатия : С потерями
Размер потока : 4,07 Мбайт (100%)
Библиотека кодирования : LAME3.98.2ЄЄЄЄЄЄЄЄЄЄ

Общее
Полное имя : C:\Users\Андрей\Desktop\Раздачи\Disco90_Avtoradio_rus\096. Веселые Ребята - Уходило Лето.mp3
Формат : MPEG Audio
Размер файла : 5,24 Мбайт
Продолжительность : 2 м. 51 с.
Режим общего битрейта : Постоянный
Общий поток : 256 Кбит/сек
Альбом : Äèñêîòåêà 90õ ñ Àâòîðàäèî
Трек : Óõîäèëî Ëåòî
Трек/Положение : 096
Трек/Всего : 100
Исполнитель : Âåñåëûå Ðåáÿòà
Жанр : Disco 90
Дата записи : 2013
Библиотека кодирования : LAME3.98

Аудио
Формат : MPEG Audio
Версия формата : Version 1
Профиль формата : Layer 3
Режим : Joint stereo
Продолжительность : 2 м. 51 с.
Вид битрейта : Постоянный
Битрейт : 256 Кбит/сек
Каналы : 2 канала
Частота : 44,1 КГц
Метод сжатия : С потерями
Размер потока : 5,23 Мбайт (100%)
Библиотека кодирования : LAME3.98
Настройки программы : -m j -V 4 -q 3 -lowpass 19.7

Общее
Полное имя : C:\Users\Андрей\Desktop\Раздачи\Disco90_Avtoradio_rus\097. Звери - Все, что тебя касается.mp3
Формат : MPEG Audio
Размер файла : 5,53 Мбайт
Продолжительность : 3 м. 1 с.
Режим общего битрейта : Постоянный
Общий поток : 256 Кбит/сек
Альбом : Äèñêîòåêà 90õ ñ Àâòîðàäèî
Трек : Âñå, ÷òî òåáÿ êàñàåòñÿ
Трек/Положение : 097
Трек/Всего : 100
Исполнитель : Çâåðè
Жанр : Disco 90
Дата записи : 2013
Библиотека кодирования : LAME3.98.2

Аудио
Формат : MPEG Audio
Версия формата : Version 1
Профиль формата : Layer 3
Режим : Joint stereo
Продолжительность : 3 м. 1 с.
Вид битрейта : Постоянный
Битрейт : 256 Кбит/сек
Каналы : 2 канала
Частота : 44,1 КГц
Метод сжатия : С потерями
Размер потока : 5,52 Мбайт (100%)
Библиотека кодирования : LAME3.98.2

Общее
Полное имя : C:\Users\Андрей\Desktop\Раздачи\Disco90_Avtoradio_rus\098. Нэнси - Девушка Мечты.mp3
Формат : MPEG Audio
Размер файла : 9,78 Мбайт
Продолжительность : 5 м. 20 с.
Режим общего битрейта : Постоянный
Общий поток : 256 Кбит/сек
Альбом : Äèñêîòåêà 90õ ñ Àâòîðàäèî
Трек : Äåâóøêà Ìå÷òû
Трек/Положение : 098
Трек/Всего : 100
Исполнитель : Íýíñè
Жанр : Disco 90
Дата записи : 2013
Библиотека кодирования : LAME3.93

Аудио
Формат : MPEG Audio
Версия формата : Version 1
Профиль формата : Layer 3
Режим : Dual mono
Продолжительность : 5 м. 20 с.
Вид битрейта : Постоянный
Битрейт : 256 Кбит/сек
Каналы : 2 канала
Частота : 44,1 КГц
Метод сжатия : С потерями
Размер потока : 9,78 Мбайт (100%)
Библиотека кодирования : LAME3.93

Общее
Полное имя : C:\Users\Андрей\Desktop\Раздачи\Disco90_Avtoradio_rus\099. Алексин и Спам - Красивая (Remake).mp3
Формат : MPEG Audio
Размер файла : 6,82 Мбайт
Продолжительность : 3 м. 43 с.
Режим общего битрейта : Постоянный
Общий поток : 256 Кбит/сек
Альбом : Äèñêîòåêà 90õ ñ Àâòîðàäèî
Трек : Êðàñèâàÿ (Remake)
Трек/Положение : 099
Трек/Всего : 100
Исполнитель : Àëåêñèí è Ñïàì
Жанр : Disco 90
Дата записи : 2013
Библиотека кодирования : LAME3.98r

Аудио
Формат : MPEG Audio
Версия формата : Version 1
Профиль формата : Layer 3
Режим : Joint stereo
Расширение режима : MS Stereo
Продолжительность : 3 м. 43 с.
Вид битрейта : Постоянный
Битрейт : 256 Кбит/сек
Каналы : 2 канала
Частота : 44,1 КГц
Метод сжатия : С потерями
Размер потока : 6,82 Мбайт (100%)
Библиотека кодирования : LAME3.98r
Настройки программы : -m j -V 4 -q 3 -lowpass 19.7

Общее
Полное имя : C:\Users\Андрей\Desktop\Раздачи\Disco90_Avtoradio_rus\100. Игорек - Подождем.mp3
Формат : MPEG Audio
Размер файла : 6,29 Мбайт
Продолжительность : 3 м. 25 с.
Режим общего битрейта : Постоянный
Общий поток : 256 Кбит/сек
Альбом : Äèñêîòåêà 90õ ñ Àâòîðàäèî
Трек : Ïîäîæäåì
Трек/Положение : 100
Трек/Всего : 100
Исполнитель : Èãîðåê
Жанр : Disco 90
Дата записи : 2013
Библиотека кодирования : LAME3.98.2
TYER : 2012

Аудио
Формат : MPEG Audio
Версия формата : Version 1
Профиль формата : Layer 3
Режим : Joint stereo
Продолжительность : 3 м. 26 с.
Вид битрейта : Постоянный
Битрейт : 256 Кбит/сек
Каналы : 2 канала
Частота : 44,1 КГц
Метод сжатия : С потерями
Размер потока : 6,29 Мбайт (100%)
Библиотека кодирования : LAME3.98.2
Детали торрента:
Название:VA - Диско 90 с Авторадио. Русский сборник (2013) [MP3|256 кб/с]<Pop, Dance>
Дата добавления:13 Мар 2013 16:26:50
Размер:685 MB
Раздают:3
Качают:0
Форум:Pop (сборники)

All rights reserved © 2015-2018