TORRENTS43.XYZ

Скачать Братец медвежонок - Дилогия: Братец медвежонок / Brother Bear (2003), Братец медвежонок 2: Лоси в бегах / Brother Bear 2 (2006) BDRip [H.264/1080p-LQ]


Братец медвежонок / Brother Bear (2003) BDRip [H.264/1080p-LQ]
«Welcome to a world where animals rule and the only human around... isn't human anymore.»

Русское название: Братец медвежонок
Оригинальное название: Brother Bear
Год выпуска: 2003
Жанр: Мультфильм, Фэнтези, Приключения, Семейный
Производство: США
Перевод: Полное дублирование, Профессиональный многоголосый закадровый (русский и украинский)
Субтитры: Вшитые отключаемые
Язык субтитров: Русский, Английский
Навигация по главам: Есть (28)

Режиссер: Аарон Блэйз, Роберт Уолкер
В ролях: Хоакин Феникс, Джереми Суарес, Джейсон Райз, Рик Морэнис, Дэйв Томас, Д.Б. Суини, Джоан Коуплэнд, Майкл Кларк Дункан, Харольд Гулд, Пол Кристи

Описание:
Давным-давно, в те времена, когда по Земле ходили мамонты, а вечные льды достигали южных морей, жил охотник по имени Кенаи. Он был храбр и ловок, но однажды прогневил Великих Духов, убив медведицу — священного для него зверя, чей тотем он носил на шее. Тогда духи предков в наказание превратили в медведя самого Кенаи. Теперь он не может говорить по-человечески, за ним охотится его собственный брат, а еще к нему прибился озорной медвежонок Кода, не желающий оставить героя в покое. Но духи не зря свели Кенаи с Кодой — в час, когда охотник увидит в медвежонке родственную душу, он сможет снова стать человеком…

Релиз от: Liones / специально для torrents43.xyz

Российское возрастное ограничение: 0+ (для любой зрительской аудитории)

Дата мировой премьеры: 20 октября 2003
Дата выхода DVD релиза: 3 августа 2009, «CP-Digital»
Дата выхода Blu-Ray релиза: 26 марта 2013, «Уолт Дисней Компани СНГ»

Продолжительность: 01:21:35
Качество видео: BDRip

Видеокодек: MPEG-4 AVC/H.264
Битрейт видео: ~5845 Kbps
Размер кадра: 1920x816
Аудио #1: Русский, 48 kHz, AC3 Dolby Digital, 3/2 (L,C,R,l,r) + LFE ch, ~384 kbps | Профессиональный дублированный перевод
Аудио #2: Русский, 48 kHz, AC3 Dolby Digital, 3/2 (L,C,R,l,r) + LFE ch, ~384 kbps | Профессиональный многоголосый перевод
Аудио #3: Украинский, 48 kHz, AC3 Dolby Digital, 2 ch, ~192 kbps | Профессиональный многоголосый перевод
Аудио #4: Английский, 48 kHz, AC3 Dolby Digital, 3/2 (L,C,R,l,r) + LFE ch, ~448 kbps | Оригинальная звуковая дорожка

MediaInfo

Код: выделить все
General
Unique ID                      : 239952249789352099942808940841945095143 (0xB4851F4FA889603AAD6CE46C9A495BE7)
Complete name                  : Brother.Bear.Dilogy.2003.2006.BDRip.1080p.[torrents43.xyz]\Brother.Bear.2003.BDRip.1080p.2xRus.Ukr.Eng.[torrents43.xyz].mkv
Format                         : Matroska
Format version                 : Version 4 / Version 2
File size                      : 4.28 GiB
Duration                       : 1h 21mn
Overall bit rate               : 7 509 Kbps
Movie name                     : Brother Bear (2003) / Liones / torrents43.xyz
Encoded date                   : UTC 2013-03-08 04:53:55
Writing application            : mkvmerge v6.1.0 ('Old Devil') built on Mar  2 2013 14:32:37
Writing library                : libebml v1.3.0 + libmatroska v1.4.0

Video
ID                             : 1
Format                         : AVC
Format/Info                    : Advanced Video Codec
Format profile                 : High@L4.1
Format settings, CABAC         : Yes
Format settings, ReFrames      : 5 frames
Codec ID                       : V_MPEG4/ISO/AVC
Duration                       : 1h 21mn
Bit rate                       : 5 845 Kbps
Width                          : 1 920 pixels
Height                         : 816 pixels
Display aspect ratio           : 2.35:1
Frame rate mode                : Constant
Frame rate                     : 25.000 fps
Original frame rate            : 23.976 fps
Color space                    : YUV
Chroma subsampling             : 4:2:0
Bit depth                      : 8 bits
Scan type                      : Progressive
Bits/(Pixel*Frame)             : 0.149
Stream size                    : 3.39 GiB (79%)
Title                          : Brother.Bear.2003.1080p.BDRip.2xRus.Ukr.Eng.-Liones-.[torrents43.xyz]
Writing library                : x264 core 129 r2245 bc13772
Encoding settings              : cabac=1 / ref=5 / deblock=1:0:0 / analyse=0x3:0x113 / me=umh / subme=8 / psy=1 / psy_rd=1.00:0.00 / mixed_ref=1 / me_range=16 / chroma_me=1 / trellis=1 / 8x8dct=1 / cqm=0 / deadzone=21,11 / fast_pskip=1 / chroma_qp_offset=-2 / threads=12 / lookahead_threads=2 / sliced_threads=0 / nr=0 / decimate=1 / interlaced=0 / bluray_compat=0 / constrained_intra=0 / bframes=3 / b_pyramid=2 / b_adapt=2 / b_bias=0 / direct=3 / weightb=1 / open_gop=0 / weightp=2 / keyint=240 / keyint_min=24 / scenecut=40 / intra_refresh=0 / rc_lookahead=50 / rc=2pass / mbtree=1 / bitrate=5845 / ratetol=1.0 / qcomp=0.60 / qpmin=0 / qpmax=69 / qpstep=4 / cplxblur=20.0 / qblur=0.5 / ip_ratio=1.40 / aq=1:1.00
Language                       : English
Default                        : Yes
Forced                         : No

Audio #1
ID                             : 2
Format                         : AC-3
Format/Info                    : Audio Coding 3
Mode extension                 : CM (complete main)
Format settings, Endianness    : Big
Codec ID                       : A_AC3
Duration                       : 1h 21mn
Bit rate mode                  : Constant
Bit rate                       : 384 Kbps
Channel(s)                     : 6 channels
Channel positions              : Front: L C R, Side: L R, LFE
Sampling rate                  : 48.0 KHz
Bit depth                      : 16 bits
Compression mode               : Lossy
Delay relative to video        : 4s 227ms
Stream size                    : 224 MiB (5%)
Title                          : Дубляж
Language                       : Russian
Default                        : Yes
Forced                         : No

Audio #2
ID                             : 3
Format                         : AC-3
Format/Info                    : Audio Coding 3
Mode extension                 : CM (complete main)
Format settings, Endianness    : Big
Codec ID                       : A_AC3
Duration                       : 1h 21mn
Bit rate mode                  : Constant
Bit rate                       : 384 Kbps
Channel(s)                     : 6 channels
Channel positions              : Front: L C R, Side: L R, LFE
Sampling rate                  : 48.0 KHz
Bit depth                      : 16 bits
Compression mode               : Lossy
Delay relative to video        : 4s 227ms
Stream size                    : 224 MiB (5%)
Title                          : Многоголосый
Language                       : Russian
Default                        : No
Forced                         : No

Audio #3
ID                             : 4
Format                         : AC-3
Format/Info                    : Audio Coding 3
Mode extension                 : CM (complete main)
Format settings, Endianness    : Big
Codec ID                       : A_AC3
Duration                       : 1h 21mn
Bit rate mode                  : Constant
Bit rate                       : 192 Kbps
Channel(s)                     : 2 channels
Channel positions              : Front: L R
Sampling rate                  : 48.0 KHz
Bit depth                      : 16 bits
Compression mode               : Lossy
Delay relative to video        : 3s 969ms
Stream size                    : 112 MiB (3%)
Title                          : Украинский
Language                       : Ukrainian
Default                        : No
Forced                         : No

Audio #4
ID                             : 5
Format                         : AC-3
Format/Info                    : Audio Coding 3
Mode extension                 : CM (complete main)
Format settings, Endianness    : Big
Codec ID                       : A_AC3
Duration                       : 1h 21mn
Bit rate mode                  : Constant
Bit rate                       : 448 Kbps
Channel(s)                     : 6 channels
Channel positions              : Front: L C R, Side: L R, LFE
Sampling rate                  : 48.0 KHz
Bit depth                      : 16 bits
Compression mode               : Lossy
Delay relative to video        : 229ms
Stream size                    : 261 MiB (6%)
Title                          : Английский
Language                       : English
Default                        : No
Forced                         : No

Text #1
ID                             : 6
Format                         : UTF-8
Codec ID                       : S_TEXT/UTF8
Codec ID/Info                  : UTF-8 Plain Text
Title                          : Русские
Language                       : Russian
Default                        : No
Forced                         : No

Text #2
ID                             : 7
Format                         : UTF-8
Codec ID                       : S_TEXT/UTF8
Codec ID/Info                  : UTF-8 Plain Text
Title                          : Английские
Language                       : English
Default                        : No
Forced                         : No

Text #3
ID                             : 8
Format                         : VobSub
Muxing mode                    : zlib
Codec ID                       : S_VOBSUB
Codec ID/Info                  : The same subtitle format used on DVDs
Language                       : Russian
Default                        : No
Forced                         : No

Text #4
ID                             : 9
Format                         : VobSub
Muxing mode                    : zlib
Codec ID                       : S_VOBSUB
Codec ID/Info                  : The same subtitle format used on DVDs
Language                       : English
Default                        : No
Forced                         : No

Menu
00:00:00.000                   : en:00:00:00.000
00:02:01.288                   : en:00:02:01.288
00:07:03.465                   : en:00:07:03.465
00:11:24.100                   : en:00:11:24.100
00:14:33.206                   : en:00:14:33.206
00:15:21.254                   : en:00:15:21.254
00:20:10.084                   : en:00:20:10.084
00:24:34.473                   : en:00:24:34.473
00:27:06.708                   : en:00:27:06.708
00:29:45.617                   : en:00:29:45.617
00:33:01.188                   : en:00:33:01.188
00:36:18.927                   : en:00:36:18.927
00:38:26.054                   : en:00:38:26.054
00:42:22.582                   : en:00:42:22.582
00:44:18.030                   : en:00:44:18.030
00:47:10.369                   : en:00:47:10.369
00:48:59.520                   : en:00:48:59.520
00:50:16.055                   : en:00:50:16.055
00:54:21.133                   : en:00:54:21.133
00:56:46.778                   : en:00:56:46.778
01:00:11.316                   : en:01:00:11.316
01:04:58.895                   : en:01:04:58.895
01:08:28.855                   : en:01:08:28.855
01:09:14.817                   : en:01:09:14.817
01:11:20.109                   : en:01:11:20.109
01:16:55.986                   : en:01:16:55.986
01:18:01.468                   : en:01:18:01.468
01:19:29.139                   : en:01:19:29.139

Скриншоты:

Братец медвежонок 2: Лоси в бегах / Brother Bear 2 (2006) BDRip [H.264/1080p-LQ]
«The moose are on the loose.»

Русское название: Братец медвежонок 2: Лоси в бегах
Оригинальное название: Brother Bear 2
Год выпуска: 2006
Жанр: Мультфильм, Фэнтези, Комедия, Приключения, Семейный
Производство: США
Перевод: Полное дублирование, Авторский одноголосный (Гранкин)
Субтитры: Вшитые отключаемые
Язык субтитров: Русский, Английский
Навигация по главам: Есть (12)

Режиссер: Бен Глюк
В ролях: Патрик Демпси, Менди Мур, Джереми Суарез, Рик Моранис, Дейв Томас, Андреа Мартин, Кетрин Охара

Описание:
Это снова мы, но уже в новом мультфильме. Но не только мы, лоси, но также и большой медведь (его зовут Кенаи) и его маленький братец медвежонок (его зовут Кода) и еще новая девочка по имени Нита. Не правда ли от нее столько хлопот? Нита знала Большого Медведя и раньше, когда он еще и не был медведем. Это было в первом мультфильме, помните? В любом случае, они думали, что всегда будут вместе, даже если бы не смогли поладить друг с другом, как два сердитых бобра в земляной хижине. Ну и теперь Великие Духи говорят, что им нужно отправиться в удивительное большое путешествие, чтобы нарушить это соглашение. Поэтому не топчитесь на месте. А присоединяйтесь ко мне и моему брату - о! в этой истории также найдется место и для двух очаровательных лосих - в поисках веселых и диких приключений. (Вы заметили, что я сказал? Я сказал слово "диких" - это потому что мы в лесу.) Красота! Обещаю вам море веселья для всей семьи - вы готовы?

Релиз от: Liones / специально для torrents43.xyz

Российское возрастное ограничение: 0+ (для любой зрительской аудитории)

Дата мировой премьеры: 17 августа 2006,
Дата выхода DVD релиза: 5 октября 2009, «ВС трейд»
Дата выхода Blu-Ray релиза: 26 марта 2013, «Уолт Дисней Компани СНГ»

Продолжительность: 01:10:26
Качество видео: BDRip

Видеокодек: MPEG-4 AVC/H.264
Битрейт видео: ~7010 Kbps
Размер кадра: 1920x1080
Аудио #1: Русский, 48 kHz, AC3 Dolby Digital, 2 ch, ~192 kbps | Профессиональный дублированный перевод
Аудио #2: Русский, 48 kHz, AC3 Dolby Digital, 2 ch, ~224 kbps | Русский одноголосый перевод (Гранкин)
Аудио #4: Английский, 48 kHz, AC3 Dolby Digital, 3/2 (L,C,R,l,r) + LFE ch, ~384 kbps | Оригинальная звуковая дорожка

MediaInfo

Код: выделить все
General
Unique ID                      : 253899857902481919053424206741723259863 (0xBF03557BD8D5AD9DB2C9F77FC0D1A3D7)
Complete name                  : Brother.Bear.Dilogy.2003.2006.BDRip.1080p.[torrents43.xyz]\Brother.Bear.2.2006.BDRip.1080p.2xRus.Eng.[torrents43.xyz].mkv
Format                         : Matroska
Format version                 : Version 4 / Version 2
File size                      : 3.99 GiB
Duration                       : 1h 10mn
Overall bit rate               : 8 103 Kbps
Movie name                     : Brother Bear 2 (2006) / Liones / torrents43.xyz
Encoded date                   : UTC 2013-03-08 05:08:28
Writing application            : mkvmerge v6.1.0 ('Old Devil') built on Mar  2 2013 14:32:37
Writing library                : libebml v1.3.0 + libmatroska v1.4.0

Video
ID                             : 1
Format                         : AVC
Format/Info                    : Advanced Video Codec
Format profile                 : High@L4.1
Format settings, CABAC         : Yes
Format settings, ReFrames      : 4 frames
Codec ID                       : V_MPEG4/ISO/AVC
Duration                       : 1h 10mn
Bit rate                       : 7 010 Kbps
Width                          : 1 920 pixels
Height                         : 1 080 pixels
Display aspect ratio           : 16:9
Frame rate mode                : Constant
Frame rate                     : 25.000 fps
Original frame rate            : 23.976 fps
Color space                    : YUV
Chroma subsampling             : 4:2:0
Bit depth                      : 8 bits
Scan type                      : Progressive
Bits/(Pixel*Frame)             : 0.135
Stream size                    : 3.51 GiB (88%)
Title                          : Brother.Bear.2.2006.1080p.BDRip.2xRus.Eng.-Liones-.[torrents43.xyz]
Writing library                : x264 core 129 r2245 bc13772
Encoding settings              : cabac=1 / ref=4 / deblock=1:0:0 / analyse=0x3:0x133 / me=umh / subme=7 / psy=1 / psy_rd=1.00:0.00 / mixed_ref=1 / me_range=16 / chroma_me=1 / trellis=1 / 8x8dct=1 / cqm=0 / deadzone=21,11 / fast_pskip=0 / chroma_qp_offset=-2 / threads=6 / lookahead_threads=1 / sliced_threads=0 / nr=0 / decimate=1 / interlaced=0 / bluray_compat=0 / constrained_intra=0 / bframes=3 / b_pyramid=2 / b_adapt=1 / b_bias=0 / direct=1 / weightb=1 / open_gop=0 / weightp=2 / keyint=240 / keyint_min=23 / scenecut=40 / intra_refresh=0 / rc_lookahead=40 / rc=2pass / mbtree=1 / bitrate=7010 / ratetol=1.0 / qcomp=0.60 / qpmin=10 / qpmax=69 / qpstep=4 / cplxblur=20.0 / qblur=0.5 / ip_ratio=1.40 / aq=1:1.00
Language                       : English
Default                        : Yes
Forced                         : No

Audio #1
ID                             : 2
Format                         : AC-3
Format/Info                    : Audio Coding 3
Format profile                 : Dolby Digital
Mode extension                 : CM (complete main)
Format settings, Endianness    : Big
Codec ID                       : A_AC3
Duration                       : 1h 10mn
Bit rate mode                  : Constant
Bit rate                       : 192 Kbps
Channel(s)                     : 2 channels
Channel positions              : Front: L R
Sampling rate                  : 48.0 KHz
Bit depth                      : 16 bits
Compression mode               : Lossy
Delay relative to video        : 4s 389ms
Stream size                    : 96.7 MiB (2%)
Title                          : Русский дублированный
Language                       : Russian
Default                        : Yes
Forced                         : No

Audio #2
ID                             : 3
Format                         : AC-3
Format/Info                    : Audio Coding 3
Mode extension                 : CM (complete main)
Format settings, Endianness    : Big
Codec ID                       : A_AC3
Duration                       : 1h 10mn
Bit rate mode                  : Constant
Bit rate                       : 224 Kbps
Channel(s)                     : 2 channels
Channel positions              : Front: L R
Sampling rate                  : 48.0 KHz
Bit depth                      : 16 bits
Compression mode               : Lossy
Delay relative to video        : 4s 389ms
Stream size                    : 113 MiB (3%)
Title                          : Русский одноголосый (Гранкин)
Language                       : Russian
Default                        : No
Forced                         : No

Audio #3
ID                             : 4
Format                         : AC-3
Format/Info                    : Audio Coding 3
Mode extension                 : CM (complete main)
Format settings, Endianness    : Big
Codec ID                       : A_AC3
Duration                       : 1h 10mn
Bit rate mode                  : Constant
Bit rate                       : 384 Kbps
Channel(s)                     : 6 channels
Channel positions              : Front: L C R, Side: L R, LFE
Sampling rate                  : 48.0 KHz
Bit depth                      : 16 bits
Compression mode               : Lossy
Delay relative to video        : 4s 389ms
Stream size                    : 193 MiB (5%)
Title                          : Английский
Language                       : English
Default                        : No
Forced                         : No

Text #1
ID                             : 5
Format                         : UTF-8
Codec ID                       : S_TEXT/UTF8
Codec ID/Info                  : UTF-8 Plain Text
Title                          : Русские
Language                       : Russian
Default                        : No
Forced                         : No

Text #2
ID                             : 6
Format                         : UTF-8
Codec ID                       : S_TEXT/UTF8
Codec ID/Info                  : UTF-8 Plain Text
Title                          : Английские
Language                       : English
Default                        : No
Forced                         : No

Menu
00:00:00.000                   : en:00:00:00.000
00:04:05.870                   : en:00:04:05.870
00:06:47.907                   : en:00:06:47.907
00:10:46.312                   : en:00:10:46.312
00:13:53.624                   : en:00:13:53.624
00:23:25.112                   : en:00:23:25.112
00:27:31.983                   : en:00:27:31.983
00:32:45.129                   : en:00:32:45.129
00:43:51.670                   : en:00:43:51.670
00:48:40.834                   : en:00:48:40.834
00:57:11.302                   : en:00:57:11.302
01:01:27.517                   : en:01:01:27.517

Скриншоты:

Братец Медвежонок 1-2 на трекере torrents43.xyz

Смотреть Online

http://moonwalk.cc/video/cebab0050d8aa832da55da4af389e230/iframe
Детали торрента:
Название:Братец медвежонок - Дилогия: Братец медвежонок / Brother Bear (2003), Братец медвежонок 2: Лоси в бегах / Brother Bear 2 (2006) BDRip [H.264/1080p-LQ]
Дата добавления:08 Мар 2013 08:32:51
Размер:8,27 GB
Раздают:4
Качают:0
Форум:Зарубежные Мультфильмы (HD*Rip/LQ, DVDRip, SATRip, VHSRip)

All rights reserved © 2015-2018