TORRENTS43.XYZ

Скачать Путешествие в страну динозавров / Journey to the Center of the Earth (2008) DVDRip


Путешествие в страну динозавров / Journey to the Center of the Earth (2008) DVDRip
Русское название: Путешествие в страну динозавров
Оригинальное название: Journey to the Center of the Earth
Производство: США / Asylum, The
Год выпуска: 2008
Жанр: Фантастика, Боевик, Приключения

Описание фильма:
Ученые секретной научной лаборатории разработали новейшую установку для перемещения в пространстве. Но во время запуска оборудование внезапно даёт сбой, и разведывательная группа оказывается в неизвестном мире, полном смертельных опасностей! Из последнего сообщения капитана стало известно лишь то, что они окружены гигантскими чудовищами, существовавшими на нашей планете несколько миллионов лет назад! Неужели они попали в место, где всё ещё обитают динозавры!? Поскольку каждая минута пребывания в доисторическом месте может стоить жизни, на поиск пропавшей группы отправляют спасательную экспедицию...

Режиссер: Дэвид Джонс, Скотт Вилер
Актеры: Грег Эвиган, Дженнифер Дороги, Диди Пфайффер, Ванесса Ли Эвиган, Кэролайн Эттвуд, Амелия Джексон-Грэй, Сара Томко, Ванесса Митчелл, Майкл Тауэр, Дилан Дил

Продолжительность: 01:22:56
Перевод: Многоголосый закадровый



Дата мировой премьеры: 1 июля 2008
Дата выхода DVD релиза: 14 октября 2008

Видеокодек: DivX 5
Битрейт видео: ~1967 Кбит/сек
Размер кадра: 704x384
Качество видео: DVDRip
Аудиокодек: AC3 6 каналов
Битрейт аудио: 384 Кбит/сек

MediaInfo:

Общее
Полное имя : Puteshestvie.v.stranu.dinozavrov.2008.DivX.DVDRip.avi
Формат : AVI
Формат/Информация : Audio Video Interleave
Размер файла : 1,37 Гбайт
Продолжительность : 1 ч. 22 м.
Общий поток : 2360 Кбит/сек
Программа кодирования : VirtualDubMod 1.5.10.2 (build 2540/release)
Библиотека кодирования : VirtualDubMod build 2540/release

Видео
Идентификатор : 0
Формат : MPEG-4 Visual
Параметр BVOP формата : 1
Параметр QPel формата : Нет
Параметр GMC формата : Без точки перехода
Параметр матрицы формата : Default (MPEG)
Режим смешивания : Сжатый битовый поток
Идентификатор кодека : DX50
Идентификатор кодека/Подсказка : DivX 5
Продолжительность : 1 ч. 22 м.
Битрейт : 1967 Кбит/сек
Ширина : 704 пикселя
Высота : 384 пикселя
Соотношение сторон : 1,85:1
Частота кадров : 25,000 кадров/сек
Цветовое пространство : YUV
Субдискретизация насыщенности : 4:2:0
Битовая глубина : 8 бит
Тип развёртки : Прогрессивная
Метод сжатия : С потерями
Бит/(Пиксели*Кадры) : 0.291
Размер потока : 1,14 Гбайт (83%)
Библиотека кодирования : DivX 5.2.1 Beta (UTC 2004-09-08)

Аудио
Идентификатор : 1
Формат : AC-3
Формат/Информация : Audio Coding 3
Расширение режима : CM (complete main)
Параметр Endianness формата : Big
Идентификатор кодека : 2000
Продолжительность : 1 ч. 22 м.
Вид битрейта : Постоянный
Битрейт : 384 Кбит/сек
Каналы : 6 каналов
Расположение каналов : Front: L C R, Side: L R, LFE
Частота : 48,0 КГц
Битовая глубина : 16 бит
Метод сжатия : С потерями
Задержка видео : 8 мс.
Размер потока : 228 Мбайт (16%)
Выравнивание : Разделение по промежуткам
Продолжительность промежутка : 40 мс. (1,00 видеокадр)
Время предзагрузки промежутка : 500 мс.
Скриншоты:





Время раздачи
Детали торрента:
Название:Путешествие в страну динозавров / Journey to the Center of the Earth (2008) DVDRip
Дата добавления:08 Фев 2013 23:19:15
Размер:1,37 GB
Раздают:
Качают:0
Форум:Грайндхаус

All rights reserved © 2015-2018