TORRENTS43.XYZ

Скачать Бумажный роман / Paperman (2012) [H.264/1080p-LQ] WEB-DLRip


Бумажный роман / Paperman (2012) [H.264/1080p-LQ] WEB-DLRip
Русское название: Бумажный роман
Оригинальное название: Paperman
Год выпуска: 2012
Жанр: короткометражка, мелодрама, комедия

Описание:
Середина двадцатого столетия. Нью-Йорк. Одинокий молодой человек на платформе вокзала. Еще мгновение — и судьба подарит ему удивительный шанс, который, возможно, бывает раз в жизни. Он встретит красавицу, чей взгляд мгновенно покорит его сердце. Но девушка его мечты так же быстро исчезает, как и появляется. Будет ли у героя мультфильма вторая попытка?

Режиссер: John Kahrs
Персонажи: John Kahrs, Jeff Turley, Kari Wahlgren

Продолжительность: 00:06:34
Перевод: Без слов / Немой

Видеокодек: MPEG-4 AVC/H.264
Битрейт видео: ~3670 kb/s
Размер кадра: 1920x1080
Качество видео: WEB-DLRip
Аудиокодек: AAC 2 ch
Битрейт аудио: 192 kb/s

MediaInfo

General
Format : MPEG-4
Format profile : Base Media / Version 2
Codec ID : mp42
File size : 182 MiB
Duration : 6mn 34s
Overall bit rate : 3 864 Kbps
Encoded date : UTC 2013-01-30 02:32:09
Tagged date : UTC 2013-01-30 02:32:09
gsst : 0
gstd : 394970
gssd : BADC21305HH1359735421173000
gshh : r17---sn-4g57ln7y.c.youtube.com

Video #1
Format : AVC
Format/Info : Advanced Video Codec
Format profile : High@L4.0
Format settings, CABAC : Yes
Format settings, ReFrames : 1 frame
Codec ID : avc1
Codec ID/Info : Advanced Video Coding
Duration : 6mn 34s
Bit rate mode : Variable
Bit rate : 3 670 Kbps
Maximum bit rate : 12.9 Mbps
Width : 1 920 pixels
Height : 1 080 pixels
Display aspect ratio : 16/9
Frame rate mode : Variable
Frame rate : 24.000 fps
Resolution : 24 bits
Colorimetry : 4:2:0
Scan type : Progressive
Bits/(Pixel*Frame) : 0.074
Stream size : 173 MiB (95%)
Encoded date : UTC 1970-01-01 00:00:00
Tagged date : UTC 2013-01-30 02:32:09

Audio #2
Format : AAC
Format/Info : Advanced Audio Codec
Format version : Version 4
Format profile : LC
Format settings, SBR : No
Codec ID : 40
Duration : 6mn 34s
Bit rate mode : Variable
Bit rate : 192 Kbps
Maximum bit rate : 202 Kbps
Channel(s) : 2 channels
Channel positions : L R
Sampling rate : 44.1 KHz
Resolution : 16 bits
Stream size : 9.04 MiB (5%)
Title : IsoMedia File Produced by Google, 5-11-2011
Encoded date : UTC 2013-01-30 02:32:09
Tagged date : UTC 2013-01-30 02:32:09
Скриншоты:



Смотреть Online

http://moonwalk.cc/video/cabcaf4bbfeb6801/iframe
Детали торрента:
Название:Бумажный роман / Paperman (2012) [H.264/1080p-LQ] WEB-DLRip
Дата добавления:01 Фев 2013 19:36:34
Размер:182 MB
Раздают:1
Качают:0
Форум:Зарубежные Мультфильмы (HD)

All rights reserved © 2015-2018