TORRENTS43.XYZ

Скачать Суши гёл / Sushi Girl (2012) [H.264] DVDRip


Суши гёл / Sushi Girl (2012) [H.264] DVDRip
«20-ти летию «БЕШЕНЫХ ПСОВ» Квентина Тарантино посвящается»

Русское название: Суши гёл
Оригинальное название: Sushi Girl
Год выпуска: 2012
Производство: США | Assembly Line, Level Up Productions, Stray Angel Films
Жанр: Триллер, Криминал
Перевод: Дублированный [лицензия]

Режиссер: Керн Сэкстон
Продюсер: Нил Аллен Фишер, Дестин Пфафф, Керн Сэкстон....
Актеры: Джеймс Дювал, Ноа Хэтауэй, Энди МакКензи, Тони Тодд, Марк Хэмилл, Сонни Чиба, Давид Дастмалчян, Джефф Фэйи, Кортни Палм, Дэнни Трехо...


Описание фильма:
Налетчик по кличке Фиш провел шесть лет в тюрьме. Все эти шесть лет он молчал о совершенном грабеже и своих четырех подельниках. У ворот тюрьмы, после освобождения, его встречает машина и отвозит в место, где собираются все его бывшие друзья, участники громкого ограбления. На столе, в виде угощения, лежит молодая, обнаженная и красивая девушка с разнообразными видами суши на теле. Девушка кажется полностью безмолвной, обученной молчать и не реагировать на то, что происходит вокруг. Даже, если будет опасно. Матерые преступники начинают выяснять меж собой, куда после ограбления пропали бриллианты на несколько миллионов долларов
.
Дата мировой премьеры: 21 июля 2012
Дата российской премьеры: 29 ноября 2012, «АКМ»
Дата выхода DVD релиза: 18 декабря 2012, «Флагман-Трейд»
Дата выхода Blu-Ray релиза: 18 декабря 2012, «Флагман-Трейд»
рейтинг MPAA - — Лицам до 17 лет обязательно присутствие взрослого 18+

Продолжительность: 01:39:28
Качество видео: DVDRip (Исходник DVD5 R5)

Видеокодек: MPEG-4 AVC/H.264
Битрейт видео: ~1645 Кбит/сек
Размер кадра: 720*436@1018*436 (2.35:1)
Аудиокодек: AC3 5.1
Битрейт аудио: 448 Кбит/сек

MediaInfo:

Код: выделить все
Общее
Уникальный идентификатор                 : 204857409167417389626148544585666655979 (0x9A1E1A13CAEA8B21AA3FA4C6F29FF6EB)
Полное имя                               : :\\Суши гёл.2012.DVDRip-AVC.mkv
Формат                                   : Matroska
Версия формата                           : Version 2
Размер файла                             : 1,46 Гбайт
Продолжительность                        : 1 ч. 39 м.
Общий поток                              : 2095 Кбит/сек
Дата кодирования                         : UTC 2012-12-21 17:13:50
Программа кодирования                    : mkvmerge v5.0.1 ('Es ist Sommer') built on Nov  6 2011 16:23:40
Библиотека кодирования                   : libebml v1.2.2 + libmatroska v1.3.0

Видео
Идентификатор                            : 1
Формат                                   : AVC
Формат/Информация                        : Advanced Video Codec
Профиль формата                          : High@L4.1
Параметр CABAC формата                   : Да
Параметр ReFrames формата                : 11 кадров
Идентификатор кодека                     : V_MPEG4/ISO/AVC
Продолжительность                        : 1 ч. 39 м.
Битрейт                                  : 1645 Кбит/сек
Ширина                                   : 720 пикселей
Высота                                   : 436 пикселей
Соотношение сторон                       : 2,35:1
Соотношение сторон в оригинале           : 2,35:1
Частота кадров                           : 25,000 кадров/сек
Цветовое пространство                    : YUV
Субдискретизация насыщенности            : 4:2:0
Битовая глубина                          : 8 бит
Тип развёртки                            : Прогрессивная
Бит/(Пиксели*Кадры)                      : 0.210
Размер потока                            : 1,12 Гбайт (77%)
Библиотека кодирования                   : x264 core 119 r2106 07efeb4
Настройки программы                      : cabac=1 / ref=11 / deblock=1:-2:-1 / analyse=0x3:0x113 / me=umh / subme=9 / psy=1 / psy_rd=1.00:0.20 / mixed_ref=1 / me_range=32 / chroma_me=1 / trellis=1 / 8x8dct=1 / cqm=0 / deadzone=21,11 / fast_pskip=0 / chroma_qp_offset=-3 / threads=9 / sliced_threads=0 / nr=0 / decimate=0 / interlaced=0 / bluray_compat=0 / constrained_intra=0 / bframes=8 / b_pyramid=2 / b_adapt=2 / b_bias=0 / direct=3 / weightb=1 / open_gop=0 / weightp=2 / keyint=250 / keyint_min=25 / scenecut=40 / intra_refresh=0 / rc_lookahead=60 / rc=2pass / mbtree=1 / bitrate=1645 / ratetol=1.0 / qcomp=0.60 / qpmin=0 / qpmax=69 / qpstep=4 / cplxblur=20.0 / qblur=0.5 / ip_ratio=1.40 / aq=1:1.00
Default                                  : Да
Forced                                   : Нет

Аудио
Идентификатор                            : 2
Формат                                   : AC-3
Формат/Информация                        : Audio Coding 3
Расширение режима                        : CM (complete main)
Параметр Endianness формата              : Big
Идентификатор кодека                     : A_AC3
Продолжительность                        : 1 ч. 39 м.
Вид битрейта                             : Постоянный
Битрейт                                  : 448 Кбит/сек
Каналы                                   : 6 каналов
Расположение каналов                     : Front: L C R, Side: L R, LFE
Частота                                  : 48,0 КГц
Битовая глубина                          : 16 бит
Метод сжатия                             : С потерями
Размер потока                            : 319 Мбайт (21%)
Default                                  : Да
Forced                                   : Нет
Скриншоты:

"Суши гёл" на Torrents43.xyz

Детали торрента:
Название:Суши гёл / Sushi Girl (2012) [H.264] DVDRip
Дата добавления:22 Дек 2012 11:16:43
Размер:1,46 GB
Раздают:1
Качают:0
Форум:Зарубежные Фильмы (HD*Rip/LQ, DVDRip, SATRip, VHSRip)

All rights reserved © 2015-2018