TORRENTS43.XYZ

Скачать Эверест: За гранью возможного (сезон 1, серии 1-6 из 6) / Everest: Beyond the Limit (2006) DVDRip


Эверест: За гранью возможного (1 сезон) / Everest: Beyond the Limit (2006) DVDRip
Релиз группа:
Rip by Dog67

Русское название: Эверест: За гранью возможного (1 сезон)
Оригинальное название: Everest: Beyond the Limit
Режиссер / Телекомпания: Эдмунд Вардл, Мартин Пэйлтроп / Discovery Channel (США), Tigress Productions (Великобритания)
Год выпуска: 2006
Жанр: Документальный, Спорт

Продолжительность: 6 x ~ 00:48:00

Перевод: Одноголосый закадровый, профессиональный

Видеокодек: Xvid
Битрейт видео: ~~ 1857 Кбит/с
Размер кадра: 704x400
Качество видео: DVDRip
Аудиокодек: AC3 2.0
Битрейт аудио: 192 Кбит/с

Описание:
Эверест не жалеет тех, кто бросает ему вызов, и сурово награждает тех, кому удается его покорить. Станьте свидетелями того, как группа отважных альпинистов под началом новозеландца Расселла Брайса будет штурмовать склоны Эвереста, превозмогая нечеловеческие физические и эмоциональные нагрузки. Благодаря новейшим методам съемки на больших высотах, вы увидите захватывающие и шокирующие кадры из дневника команды Брайса, которой удалось совершить невозможное...

Список серий:

1. Мечта о вершине / Summit dreams. Поход к базовому лагерю занимает у команды 7 дней. Постепенно привыкающие к нагрузкам альпинисты узнают, что один из их проводников умер от высотной болезни. Здесь они своими глазами увидят, как жестоко может обойтись Эверест с теми, кто уже пытался его покорить. Первый бросок на высоте 6 400 м. и первые жертвы. Но как эвакуировать их, ведь сюда нельзя вызвать вертолет? Кто дрогнет следующим?
2. Привратник / The Gatekeeper. В дальнем базовом лагере более 600 альпинистов готовятся к восхождению. Теперь все подопечные Брайса должны доказать, что им хватит сил менее чем за 5 часов добраться с тяжелым снаряжением до хребта Норт-Кол, иначе им не позволят идти дальше. Различные высотные недуги становятся постоянными спутниками отважной команды, которой не обойтись без проводников-шерпов, бесстрашных заклинателей гор.
3. К вершине / To The Summit. Больше ждать нельзя. Высотные лагеря готовы, погода благоприятствует, поэтому Расселл делит свою группу на две команды. Впереди сложнейшее пятидневное восхождение с ночевками в "зоне смерти", где кислорода на 70% меньше, чем на уровне моря. Записав послания родным и близким, альпинисты начинают восхождение, и вскоре гора предъявляет им свои первые коварные сюрпризы.
4. В зону смерти / Into The Death Zone. Свирепая буря задержала первую команду на высоте 7 900 м. Это скверная новость, когда каждый глоток воздуха дается с трудом. Здесь, в "зоне смерти", человеческий организм начинает пожирать собственные мышечные ткани, поэтому группа Расселла решает спешно двигаться дальше. Но удастся ли им обойти "пробки" из более медленных альпинистов? Здесь особенно велик риск погибнуть из-за оплошности неопытных новичков. Тем временем, дает себя знать обморожение и нехватка кислорода в баллонах.
5. Бунт на горе / Mutiny On The Mountain. Первая команда добралась до вершины, но на горе так много альпинистов, что перед обратной дорогой им придется ждать на высоте 8 530 м. По прошествии 18-часового восхождения они сильно страдают от обморожения. Тем временем, восхождение начинает вторая команда, в составе которой - Майк Инглис, первый безногий альпинист на Эвересте. Расчеты Расселла показывают, что команде не хватит кислорода, но парни отказываются повернуть обратно.
6. Заплатить цену / The Final Cost. Расселл настаивает на том, что альпинисты-бунтари из второй команды погибнут, если не подчинятся его требованию повернуть обратно. Теперь они так слабы, что даже возвращение может стоить некоторым из них жизни. Наконец, обе команды начинают путь вниз по склону, становясь свидетелями чужих успехов и чужих трагедий. Но и подопечным Расселла Эверест оставил на память незаживающие шрамы - на теле и в душе.

МедиаИнфо (тех. параметры всех серий одинаковы):

General
Complete name : s01e01.Mechta.o.vershine.avi
Format : AVI
Format/Info : Audio Video Interleave
File size : 699 MiB
Duration : 47mn 42s
Overall bit rate : 2 049 Kbps
Writing application : VirtualDubMod 1.5.10.2 (build 2540/release)
Writing library : VirtualDubMod build 2540/release

Video
ID : 0
Format : MPEG-4 Visual
Format profile : Advanced Simple@L5
Format settings, BVOP : 2
Format settings, QPel : No
Format settings, GMC : No warppoints
Format settings, Matrix : Custom
Codec ID : XVID
Codec ID/Hint : XviD
Duration : 47mn 42s
Bit rate : 1 848 Kbps
Width : 704 pixels
Height : 400 pixels
Display aspect ratio : 16:9
Frame rate : 25.000 fps
Color space : YUV
Chroma subsampling : 4:2:0
Bit depth : 8 bits
Scan type : Progressive
Compression mode : Lossy
Bits/(Pixel*Frame) : 0.262
Stream size : 630 MiB (90%)
Writing library : XviD 1.2.1 (UTC 2008-12-04)

Audio
ID : 1
Format : AC-3
Format/Info : Audio Coding 3
Mode extension : CM (complete main)
Codec ID : 2000
Duration : 47mn 42s
Bit rate mode : Constant
Bit rate : 192 Kbps
Channel(s) : 2 channels
Channel positions : Front: L R
Sampling rate : 48.0 KHz
Bit depth : 16 bits
Compression mode : Lossy
Stream size : 65.5 MiB (9%)
Alignment : Split accross interleaves
Interleave, duration : 40 ms (1.00 video frame)
Interleave, preload duration : 500 ms
Скриншоты:



Смотреть Online

http://moonwalk.cc/serial/5be92c33b1d4d0e01f302501902063a1/iframe
Детали торрента:
Название:Эверест: За гранью возможного (сезон 1, серии 1-6 из 6) / Everest: Beyond the Limit (2006) DVDRip
Дата добавления:05 Ноя 2012 19:54:22
Размер:4,1 GB
Раздают:3
Качают:0
Форум:Discovery

All rights reserved © 2015-2018