TORRENTS43.XYZ

Скачать Американский боевой корабль / American Battleship / American Warships (2012) HDRip


Американский боевой корабль / American Battleship / American Warships (2012) HDRip
Русское название: Американский боевой корабль
Оригинальное название: American Battleship / American Warships
Год выпуска: 2012
Производство: США, Global Asylum
Жанр: Боевик
Перевод: Многоголосый закадровый, профессиональный [SyFy]

Дата мировой премьеры: 16 апреля 2012, ...

Режиссер: Тандер Левин
Актеры: Марио Ван Пиблз, Карл Уэзерс, Джоанна Уоттс, Никки МакКоли, Тони Басиле, Элайджа Честер, Брэндон Кларк, Грегори Френч, Джеймс Шеридан Смит, Крис Хэйес, Девин МакГи, Дэвид Полински

Описание фильма:
Когда флот таинственных кораблей нападает на Землю, только команда последнего американского боевого судна сможет предотвратить армагеддон.

Примечание: Отсутствует около 1 минуты перевода



Продолжительность: 01:29:37
Качество видео: HDRip

Видеокодек: Xvid
Битрейт видео: ~1593 kbps
Размер кадра: 720x400
Аудио 1: АС3 2.0, 192 kbps - Русский
Аудио 2: АС3 5.1, 384 kbps - Английский

MediaInfo:

Общее
Полное имя : F:\Amerikanskij.boevoj.korablj.2012.P.HDRip.avi
Формат : AVI
Формат/Информация : Audio Video Interleave
Размер файла : 1,37 Гбайт
Продолжительность : 1 ч. 29 м.
Общий поток : 2184 Кбит/сек
Программа кодирования : VirtualDubMod 1.5.10.3 | www.virtualdub-fr.org || (build 2550/release)
Библиотека кодирования : VirtualDubMod build 2550/release

Видео
Идентификатор : 0
Формат : MPEG-4 Visual
Профиль формата : Advanced Simple@L5
Параметр BVOP формата : 2
Параметр QPel формата : Нет
Параметр GMC формата : Без точки перехода
Параметр матрицы формата : Default (H.263)
Идентификатор кодека : XVID
Идентификатор кодека/Подсказка : XviD
Продолжительность : 1 ч. 29 м.
Битрейт : 1594 Кбит/сек
Ширина : 720 пикс.
Высота : 400 пикс.
Соотношение сторон : 16:9
Частота кадров : 23,976 кадр/сек
Цветовое пространство : YUV
Подвыборка цветности : 4:2:0
Битовая глубина : 8 бит
Тип развёртки : Прогрессивная
Метод сжатия : С потерями
Бит/(Пиксели*Кадры) : 0.231
Размер потока : 1021 Мбайт (73%)
Библиотека кодирования : XviD 63

Аудио #1
Идентификатор : 1
Формат : AC-3
Формат/Информация : Audio Coding 3
Расширение режима : CM (complete main)
Идентификатор кодека : 2000
Продолжительность : 1 ч. 29 м.
Вид битрейта : Постоянный
Битрейт : 192 Кбит/сек
Каналы : 2 канала
Расположение каналов : Front: L R
Частота : 48,0 КГц
Битовая глубина : 16 бит
Метод сжатия : С потерями
Размер потока : 123 Мбайт (9%)
Выравнивание : Разделение по промежуткам
Продолжительность промежутка : 42 мс. (1,00 видеокадр)
Время предзагрузки промежутка : 500 ms

Аудио #2
Идентификатор : 2
Формат : AC-3
Формат/Информация : Audio Coding 3
Расширение режима : CM (complete main)
Идентификатор кодека : 2000
Продолжительность : 1 ч. 29 м.
Вид битрейта : Постоянный
Битрейт : 384 Кбит/сек
Каналы : 6 каналов
Расположение каналов : Front: L C R, Side: L R, LFE
Частота : 48,0 КГц
Битовая глубина : 16 бит
Метод сжатия : С потерями
Размер потока : 246 Мбайт (18%)
Выравнивание : Разделение по промежуткам
Продолжительность промежутка : 42 мс. (1,00 видеокадр)
Время предзагрузки промежутка : 500 ms

Скриншоты:



Детали торрента:
Название:Американский боевой корабль / American Battleship / American Warships (2012) HDRip
Дата добавления:21 Окт 2012 20:30:24
Размер:1,37 GB
Раздают:
Качают:0
Форум:Грайндхаус

All rights reserved © 2015-2018