TORRENTS43.XYZ

Скачать Вечный зов (1973) SATRip [H.264] (19 серий из 19)


Вечный зов (19 серий из 19) (1973) [H.264] SATRip
Русское название: Вечный зов
Оригинальное название: Вечный зов
Год выпуска: 1973
Страна: СССР
Жанр: драма


Премьера (мир): 2 июня 1976


Режиссеры: Владимир Краснопольский, Валерий Усков
Актеры: Валерий Хлевинский, Вадим Спиридонов, Николай Иванов, Пётр Вельяминов, Иван Лапиков, Владлен Бирюков, Ада Роговцева, Тамара Сёмина, Андрей Мартынов, Николай Ерёменко старший, Ефим Копелян, Олег Басилашвили, Наталья Кустинская, Юрий Смирнов, Николай Дупак, Манефа Соболевская, Владимир Земляникин, Николай Лебедев, , Екатерина Жемчужная, Владимир Козел, Валерий Плотников, Елена Драпеко, Любовь Виролайнен, Евгений Карельских, Леонид Харитонов, Василий Мищенко, Владимир Заманский, Борис Битюков, Виктор Шульгин, Михаил Кокшенов...


Описание фильма:
История семьи Савельевых, выходцев из далекого сибирского села, разворачивается на фоне исторических событий в России, охватывающих период с 1906 по 1960 годы. На долю семьи выпали три войны, революция, становление нового строя и все драматические события, которые принес двадцатый век. Жизнь постоянно требует от героев выбора между любовью и ненавистью. В центре повествования – три брата Савельевых: старший - Антон, средний - Фёдор и младший - Иван....
По одноимённому роману Анатолия Иванова

Продолжительность: 19 ~ 01:05 (22:09:30)
Качество видео: SATRip-AVC
Формат: MKV
Видеокодек: MPEG-4 AVC
Битрейт видео: ~1295 kbps avg, 25,000 fps, 0.139 bit/pixel
Размер кадра: 704x528 ( 4:3)
Аудиокодек: AC3
Аудио: Русский, 48.0 kHz, AC3, 2 ch ~192 Kbps avg
Субтитры: нет

Знаете ли вы, что...

Роль Кафтанова — это последняя роль в кино Ефима Захаровича Копеляна.
В сериале 19 серий, которые выходили в течение 10 лет — с 1973 по 1983 годы.

MediaInfo:

Формат : Matroska
Версия формата : Version 2
Размер файла : 814 Мбайт
Продолжительность : 1 ч. 16 м.
Общий поток : 1488 Кбит/сек
Дата кодирования : UTC 2011-01-06 09:40:14
Программа кодирования : mkvmerge v4.4.0 ('Die Wiederkehr') сборка от Dec 25 2010 23:32:50
Библиотека кодирования : libebml v1.0.0 + libmatroska v1.0.0

Видео
Идентификатор : 1
Формат : AVC
Формат/Информация : Advanced Video Codec
Профиль формата : High@L3.1
Параметр CABAC формата : Да
Параметр ReFrames формата : 11 кадров
Режим смешивания : Header stripping
Идентификатор кодека : V_MPEG4/ISO/AVC
Продолжительность : 1 ч. 16 м.
Битрейт : 1295 Кбит/сек
Ширина : 704 пикселя
Высота : 528 пикселей
Соотношение сторон : 4:3
Режим частоты кадров : Постоянный
Частота кадров : 25,000 кадров/сек
Цветовое пространство : YUV
Субдискретизация насыщенности : 4:2:0
Битовая глубина : 8 бит
Тип развёртки : Прогрессивная
Бит/(Пиксели*Кадры) : 0.139
Размер потока : 693 Мбайт (85%)
Библиотека кодирования : x264 core 112 r1834 a51816a
Настройки программы : cabac=1 / ref=11 / deblock=1:-2:-1 / analyse=0x3:0x133 / me=umh / subme=10 / psy=1 / psy_rd=1.00:0.20 / mixed_ref=1 / me_range=16 / chroma_me=1 / trellis=2 / 8x8dct=1 / cqm=0 / deadzone=21,11 / fast_pskip=0 / chroma_qp_offset=-3 / threads=12 / sliced_threads=0 / nr=0 / decimate=0 / interlaced=0 / constrained_intra=0 / bframes=8 / b_pyramid=2 / b_adapt=2 / b_bias=0 / direct=3 / weightb=1 / open_gop=0 / weightp=2 / keyint=250 / keyint_min=25 / scenecut=40 / intra_refresh=0 / rc_lookahead=60 / rc=2pass / mbtree=1 / bitrate=1295 / ratetol=1.0 / qcomp=0.60 / qpmin=0 / qpmax=51 / qpstep=4 / cplxblur=20.0 / qblur=0.5 / ip_ratio=1.40 / aq=2:1.00
Язык : Russian
Default : Да
Forced : Нет
Коэффициенты матрицы : BT.601

Аудио
Идентификатор : 2
Формат : AC-3
Формат/Информация : Audio Coding 3
Расширение режима : CM (complete main)
Параметр Endianness формата : Big
Режим смешивания : Header stripping
Идентификатор кодека : A_AC3
Продолжительность : 1 ч. 16 м.
Вид битрейта : Постоянный
Битрейт : 192 Кбит/сек
Каналы : 2 канала
Расположение каналов : Front: L R
Частота : 48,0 КГц
Битовая глубина : 16 бит
Метод сжатия : С потерями
Размер потока : 105 Мбайт (13%)
Язык : Russian
Default : Да
Forced : Нет
Скриншоты:


«Вечный зов» на трекере

Смотреть Online

http://moonwalk.cc/serial/6d6dd87e23c44e8b0c1aecd987ecc243/iframe
Детали торрента:
Название:Вечный зов (1973) SATRip [H.264] (19 серий из 19)
Дата добавления:18 Окт 2012 11:07:43
Размер:13,1 GB
Раздают:9
Качают:2
Форум:Отечественная Классика. Сериалы и многосерийные Фильмы

All rights reserved © 2015-2018