TORRENTS43.XYZ

Скачать Королева проклятых / Queen of the Damned (2002) DVDRip


Королева проклятых / Queen of the Damned (2002) DVDRip
Русское название: Королева проклятых
Оригинальное название: Queen of the Damned
Страна: США
Год выпуска: 2002
Жанр: Ужасы, мистика

Описание фильма:
Фильм основан на книгах "Вампир Лестат" и "Королева Проклятых" серии книг Энн Райс "Хроники вампира", первой из которых являлась "Интервью с вампиром". Его жажда жизни очаровала ее. Его жажда известности пробудила ее. Его жажда власти может погубить всех. Легендарный вампир Лестат (Стюарт Таунсенд) пробудился после долгих лет сна и решил выйти в свет. Теперь он имеет возможность перемещаться среди смертных в образе некой рок-звезды. Его опьяняющая музыка-приманка популярна во всём мире, и в конечном счете, доходит до ушей дремлющей Королевы Акаши (Aaliah) в ее склепе во льдах Арктики. Мать всех вампиров, Акаша отдыхала в течение столетий, ожидая подходящее время для того, чтобы подняться вновь и захватить власть по всему миру. Музыка Лестата - открытие, которого она ожидала, и теперь она хочет, чтобы он был с ней заодно.
Но можно ли Акашу остановить? Ее злорадная власть может быть слишком великой даже для наиболее древних из бессмертных вампиров... Возможно им придётся сражаться между собой. В конце концов, Акаша привыкла получать все, чего она захочет ... и все, чего она хочет - ада на Земле.

Режиссер: Майкл Раймер
Актеры: Алийа, Стюарт Таунсенд, Маргарит Моро, Венсан Перес, Лина Олин, Пол МакГэнн, Брюс Спенс, Кристиан Мэнон, Клаудия Блэк, Мэттью Ньютон

Продолжительность: 01:37:28
Перевод: Профессиональный (многоголосый, закадровый) + профессиональный (дубляж) + немецкий дубляж
Оригинальная аудиодорожка: английский



Рейтинг R - Детям до 17 лет обязательно присутствие родителей

Видеокодек: Xvid
Битрейт видео: ~1 836 Kbps
Размер кадра: 720x304
Качество видео: DVDRip

Аудио 1: Русский Dolby AC3 48000Hz 5ch 384Kbps |многоголосый, закадровый|
Аудио 2: Русский Dolby AC3 48000Hz stereo 192Kbps |Дубляж|
Аудио 3: Английский Dolby AC3 48000Hz 5ch 384Kbps |Оригинал|
Аудио 4: Немецкий Dolby AC3 48000Hz 5ch 384Kbps |Дубляж|


Скриншоты:

Знаете ли вы, что...

Студия «Warner Bros.» приобрела права на экранизацию трех первых книг Энн Райс из цикла «Вампирские хроники» на семь лет. За этот период на студии был создан фильм «Интервью с вампиром» (1994), а вот на создание киноверсий двух других книг у «Warner Bros.» оставался всего лишь один год. Тогда студия в срочном порядке наняла кинодраматургов, чтобы объединить «Вампира Лестата» и «Королеву проклятых» в один сценарий.
Роль Лестата предлагалась Тому Крузу, но он от нее отказался.
Певица Алия, исполнившая главную роль в этом фильме, погибла в авиакатастрофе вскоре после завершения съемок.
Уэс Бентли, уже получивший роль Лестата, выбыл из проекта. На смену Бентли пришел ирландский актер Стюарт Таунсенд.
За Лестата в фильме поет Джонатан Дэвис из группы «Korn». Однако по условиям контракта песни в исполнении Дэвиса не могли звучать на саундтреке картины. В итоге сочиненные Дэвисом и Ричардом Гиббсом пять композиций были записаны другими певцами.
Заменителем крови в фильме стал вишневый сок.
На роль Лестат также рассматривалась кандидатура Джоша Хартнетта.

MediaInfo:

General
Format : AVI
Format/Info : Audio Video Interleave
Format profile : OpenDML
File size : 2.17 GiB
Duration : 1h 37mn
Overall bit rate : 3 192 Kbps

Video
ID : 0
Format : MPEG-4 Visual
Format profile : Advanced Simple@L5
Format settings, BVOP : Yes
Format settings, QPel : No
Format settings, GMC : No warppoints
Format settings, Matrix : Default (MPEG)
Muxing mode : Packed bitstream
Codec ID : XVID
Codec ID/Hint : XviD
Duration : 1h 37mn
Bit rate : 1 836 Kbps
Width : 720 pixels
Height : 304 pixels
Display aspect ratio : 2.35:1
Frame rate : 25.000 fps
Resolution : 8 bits
Colorimetry : 4:2:0
Scan type : Progressive
Bits/(Pixel*Frame) : 0.336
Stream size : 1.25 GiB (58%)
Writing library : XviD 1.1.2 (UTC 2006-11-01)

Audio #1
ID : 1
Format : AC-3
Format/Info : Audio Coding 3
Codec ID : 2000
Duration : 1h 37mn
Bit rate mode : Constant
Bit rate : 384 Kbps
Channel(s) : 6 channels
Channel positions : Front: L C R, Surround: L R, LFE
Sampling rate : 48.0 KHz
Stream size : 268 MiB (12%)
Alignment : Aligned on interleaves
Interleave, duration : 64 ms (1.60 video frames)
Interleave, preload duration : 11424 ms
Title : Rus (m-voice)

Audio #2
ID : 2
Format : AC-3
Format/Info : Audio Coding 3
Codec ID : 2000
Duration : 1h 37mn
Bit rate mode : Constant
Bit rate : 192 Kbps
Channel(s) : 2 channels
Channel positions : L R
Sampling rate : 48.0 KHz
Stream size : 134 MiB (6%)
Alignment : Aligned on interleaves
Interleave, duration : 64 ms (1.60 video frames)
Interleave, preload duration : 11712 ms
Title : Rus (v-over)

Audio #3
ID : 3
Format : AC-3
Format/Info : Audio Coding 3
Codec ID : 2000
Duration : 1h 37mn
Bit rate mode : Constant
Bit rate : 384 Kbps
Channel(s) : 6 channels
Channel positions : Front: L C R, Surround: L R, LFE
Sampling rate : 48.0 KHz
Stream size : 268 MiB (12%)
Alignment : Aligned on interleaves
Interleave, duration : 64 ms (1.60 video frames)
Interleave, preload duration : 224 ms
Title : Eng (orig)

Audio #4
ID : 4
Format : AC-3
Format/Info : Audio Coding 3
Codec ID : 2000
Duration : 1h 37mn
Bit rate mode : Constant
Bit rate : 384 Kbps
Channel(s) : 6 channels
Channel positions : Front: L C R, Surround: L R, LFE
Sampling rate : 48.0 KHz
Stream size : 268 MiB (12%)
Alignment : Aligned on interleaves
Interleave, duration : 64 ms (1.60 video frames)
Interleave, preload duration : 10752 ms
Title : Deu (v-over)

Смотреть Online

http://moonwalk.cc/video/f5ccb0d37d4af935/iframe
Детали торрента:
Название:Королева проклятых / Queen of the Damned (2002) DVDRip
Дата добавления:15 Авг 2012 14:06:04
Размер:2,17 GB
Раздают:
Качают:0
Форум:Зарубежные Фильмы (HD*Rip/LQ, DVDRip, SATRip, VHSRip)

All rights reserved © 2015-2018