TORRENTS43.XYZ

Скачать Animal Planet: Дикая Франция: Живая природа в городе огней / Wild France. Nature in the City of Lights (2011) HDTVRip


Animal Planet: Дикая Франция: Живая природа в городе огней / Wild France. Nature in the City of Lights(2011) HDTVRip
Релиз группа: RG torrents43.xyzcTV
Автор Rip'а: skorpionN

Русское название: Animal Planet: Дикая Франция: Живая природа в городе огней
Оригинальное название: Wild France. Nature in the City of Lights
Режиссер / Телекомпания: Frederic Febvre & Augustin Viatte
Год выпуска: 2011
Жанр: Документальный

Описание:
Живая природа в городе огней / Nature in the City of Lights
Города разрастаются, и диким животным приходится приспосабливаться к новым урбанизированным условиям существования. Посмотрите, как им это удается. Обречены ли они на вымирание?

Продолжительность: 00:44:20

Перевод: Одноголосый закадровый, профессиональный

Видеокодек: Xvid
Битрейт видео: ~Xvid 25.00fp 1899 Kbps
Размер кадра: 720x400
Качество видео: HDTVRip
Аудиокодек: AC3
Битрейт аудио: Dolby AC3 48000Hz 6ch 192kbps

MediaInfo:

Формат : AVI
Формат/Информация : Audio Video Interleave
Размер файла : 666 Мбайт
Продолжительность : 44 м.
Общий поток : 2101 Кбит/сек
Программа кодирования : VirtualDubMod 1.5.10.3 | www.virtualdub-fr.org || (build 2550/release)
Библиотека кодирования : VirtualDubMod build 2550/release

Видео
Идентификатор : 0
Формат : MPEG-4 Visual
Профиль формата : Advanced Simple@L5
Параметр BVOP формата : 2
Параметр QPel формата : Нет
Параметр GMC формата : Без точки перехода
Параметр матрицы формата : Default (H.263)
Идентификатор кодека : XVID
Идентификатор кодека/Подсказка : XviD
Продолжительность : 44 м.
Битрейт : 1899 Кбит/сек
Ширина : 720 пикс.
Высота : 400 пикс.
Соотношение сторон : 16:9
Частота кадров : 25,000 кадр/сек
Цветовое пространство : YUV
Подвыборка цветности : 4:2:0
Битовая глубина : 8 бит
Тип развёртки : Прогрессивная
Метод сжатия : С потерями
Бит/(Пиксели*Кадры) : 0.264
Размер потока : 602 Мбайт (90%)
Библиотека кодирования : XviD 1.2.1 (UTC 2008-12-04)

Аудио
Идентификатор : 1
Формат : AC-3
Формат/Информация : Audio Coding 3
Расширение режима : CM (complete main)
Идентификатор кодека : 2000
Продолжительность : 44 м.
Вид битрейта : Постоянный
Битрейт : 192 Кбит/сек
Канал(ы) : 6 канала(ов)
Расположение каналов : Front: L C R, Side: L R, LFE
Частота : 48,0 КГц
Битовая глубина : 16 бит
Метод сжатия : С потерями
Размер потока : 60,9 Мбайт (9%)
Выравнивание : Разделение по промежуткам
Продолжительность промежутка : 40 мс. (1,00 видеокадр)
Время предзагрузки промежутка : 500 ms
Релизы в формате HDTVRip

Дикая Франция. Альпийские вершины
Дикая Франция. Под палящим солнцем
Дикая Франция. Страна тысячи озёр
Дикая Франция. Царство птиц
Дикая Франция. Вдоль по течению
Дикая Франция. Леса в тумане
Дикая Франция. Сокровища глубин
Дикая Франция. Между скалой и океаном
Дикая Франция. Живая природа в городе огней
Дикая Франция. Скрытая жизнь Бокажа

Скриншоты:


Детали торрента:
Название:Animal Planet: Дикая Франция: Живая природа в городе огней / Wild France. Nature in the City of Lights (2011) HDTVRip
Дата добавления:05 Апр 2012 18:37:55
Размер:666 MB
Раздают:1
Качают:0
Форум:Animal Planet

All rights reserved © 2015-2018