TORRENTS43.XYZ

Скачать Ирина Аллегрова - Юбилейный концерт в Олимпийском (2012) SATRip


Ирина Аллегрова - Юбилейный концерт в Олимпийском (2012) SATRip
Год выпуска: 2012
Производство: Россия, Первый канал
Жанр: Концерт

Описание:
Народная артистка России Ирина Аллегрова объявила о завершении активной концертной деятельности.

Одна из последних в поколении настоящих звезд, которые зажглись еще в Советском Союзе и привели российскую популярную песню в ХХI век... Вместе с ней мы пережили целую эпоху... Под ее песни мы шалели в 80-х от нежданного глотка свободы, переживали развал страны, в которой родились, мчались на "угнанной "девятке" и "разводили руками тучи" в лихих 90-х, чтобы со "свадебными цветами" приехать в новое тысячелетие. Ее голос стал неотъемлемой частью нашей жизни: вместе с ним мы влюблялись, женились и разводились, рожали детей, плакали о несбывшихся мечтах и надеялись на лучшее. Вместе с ее голосом мы искали ответ на вопрос "Есть ли счастье?". Через разноцветье лет она пронесла любовь к главному "Страннику" своей жизни и главному герою своего "незаконченного романа" - своему Зрителю. Им есть, о чем поговорить на прощание…За ее плечами более 20 лет творческой жизни, 11 выпущенных альбомов, несколько сотен песен, ставших любимыми и популярными ("Мама", "Миражи", "Я тучи разведу руками", "Свадебные цветы", "Странник мой", Императрица", "Незаконченный роман", "Привет, Андрей" и многие другие), сотрудничество с лучшими поэтами и композиторами: И. Крутым, И. Николаевым, И. Резником, А. Гарнизовым, Д. Тухмановым, Л. Рубальской, Р. Казаковой, О. Фельцманом и другими. Не единожды Ирина Аллегрова становилась лауреатом многочисленных музыкальных фестивалей и конкурсов: "Золотой Камертон", "Овация", "Песня года". В 2004 году была удостоена ордена "За благотворительность и милосердие" международного фонда "Меценаты столетия". Ее выступления всегда яркие, красивые, запоминающиеся; ее песни - это совершенно особый мир, наполненный необыкновенным обаянием и миллионом неповторимых интонаций певицы. В программе прозвучат самые яркие хиты прошлых лет и премьеры новых песен.

Продолжительность: 01:25:16
Качество видео: SATRip

Видеокодек: XviD
Битрейт видео: 1947 kbps
Размер кадра: 704х448
Аудио: MP3 2.0, 128 kbps

Треклист:

Треклист:
01-Автограф (Пролог)2012
02-Три мужа назад
03-Жаль
04-Красиво любить
05-Я тучи разведу руками 2012
06-Незаконченный роман 2012
07-Бабы-стервы 2012
08-Улыбка папы 2012
09-Москвичи и москвички (дуэт с И Баграмовым)
10-Не обернусь
11-Когда любовь умирает
12-Я тебе не верю
13-Рюмка водки (соло)
14-Императрица
15-Младший лейтинант
16-Привет,Андрей 2012
17-Угонщица 2012
18-Транзитный пассажир 2012
19-Ты не такой
20-Кому какая разница
21-Города

MediaInfo

Код:
Полное имя                               : Z:\Концерты\Ирина Аллегрова - Юбилейный концерт в Олимпийском (2012) SATRip.avi
Формат                                   : AVI
Формат/Информация                        : Audio Video Interleave
Размер файла                             : 1,24 Гбайт
Продолжительность                        : 1 ч. 25 м.
Общий поток                              : 2085 Кбит/сек
Название фильма                          : rip by KimVlad
Программа кодирования                    : VirtualDubMod 1.5.10.3 (build 2550/release)
Библиотека кодирования                   : VirtualDubMod build 2550/release

Видео
Идентификатор                            : 0
Формат                                   : MPEG-4 Visual
Профиль формата                          : Advanced Simple@L5
Параметр BVOP формата                    : 2
Параметр QPel формата                    : Нет
Параметр GMC формата                     : Без точки перехода
Параметр матрицы формата                 : Выборочная
Режим смешивания                         : Сжатый битовый поток
Идентификатор кодека                     : XVID
Идентификатор кодека/Подсказка           : XviD
Продолжительность                        : 1 ч. 25 м.
Битрейт                                  : 1947 Кбит/сек
Ширина                                   : 704 пикселя
Высота                                   : 448 пикселей
Соотношение сторон                       : 1,571
Частота кадров                           : 25,000 кадров/сек
Цветовое пространство                    : YUV
Субдискретизация насыщенности            : 4:2:0
Битовая глубина                          : 8 бит
Тип развёртки                            : Прогрессивная
Метод сжатия                             : С потерями
Бит/(Пиксели*Кадры)                      : 0.247
Размер потока                            : 1,16 Гбайт (93%)
Библиотека кодирования                   : XviD 62

Аудио
Идентификатор                            : 1
Формат                                   : MPEG Audio
Версия формата                           : Version 1
Профиль формата                          : Layer 3
Режим                                    : Joint stereo
Расширение режима                        : MS Stereo
Идентификатор кодека                     : 55
Идентификатор кодека/Подсказка           : MP3
Продолжительность                        : 1 ч. 25 м.
Вид битрейта                             : Постоянный
Битрейт                                  : 128 Кбит/сек
Каналы                                   : 2 канала
Частота                                  : 48,0 КГц
Метод сжатия                             : С потерями
Размер потока                            : 78,1 Мбайт (6%)
Выравнивание                             : Разделение по промежуткам
Продолжительность промежутка             : 40  мс. (1,00 видеокадр)
Время предзагрузки промежутка            : 500  мс.
Скриншоты:


Реставрация sklad600
Детали торрента:
Название:Ирина Аллегрова - Юбилейный концерт в Олимпийском (2012) SATRip
Дата добавления:09 Мар 2012 20:26:22
Размер:1,24 GB
Раздают:1
Качают:0
Форум:Концерты

All rights reserved © 2015-2018