TORRENTS43.XYZ

Скачать Испанские города 21 века: Саламанка. Филигранный город [выпуск 44] / Ciudades para el siglo: Salamanca. Ciudad y filigrana (2003) SATRip


Испанские города 21 века: Саламанка. Филигранный город [выпуск 44] / Ciudades para el siglo: Salamanca. Ciudad y filigrana (2003) SATRip
Автор рипа shibay9

Русское название: Испанские города 21 века: Саламанка. Филигранный город [выпуск 44]
Оригинальное название: Ciudades para el siglo: Salamanca. Ciudad y filigrana
Режиссер / Телекомпания: Нел Эскудеро, Жан Франциско Родригез
Год выпуска: 2003
Жанр: Документальный

Описание:
Удивительная страна эта Испания. Её жители бережно хранят традиции и в то же самое время смело смотрят в будущее. Таковы и испанские города. Здесь прошлое тесно переплетается с настоящим, а будущее присутствует повсюду, и нет-нет, да и проглянет стальным блеском за фасадами старинных зданий. Историко-культурное наследие Испании богато и разнообразно. Колорит этой страны, её неповторимые красоты вдохновляли Пикассо, Гойю, Веласкеса, Дали... Влияние различных народов, религий и культур, пограничное положение между Европой и Африкой, замкнутость Средиземноморья и бескрайность Атлантического океана – всё это нашло отражение в величественных памятниках и интереснейших традициях Испании. Чарующие соборы Севильи и Альканте, знаменитая Аламбра и сады Хенералифе в Гранаде, «винная столица» Херес и музей корриды в Ронде – малая часть того, чем вас может удивить Испания! Удивительное сочетание ярко-голубого неба, золотых песчаных пляжей, кристально чистой воды и пьянящего воздуха делает отдых в Испании незабываемым. Климат Испании разнообразен: можно дрожать от холода, кутаясь в теплую шаль высоко в горах и наблюдать, как где-то далеко внизу дети плещутся в теплых волнах ласкового моря.

Продолжительность: 00:29:03

Перевод: Одноголосый закадровый, профессиональный

Видеокодек: Xvid
Битрейт видео: ~Xvid 25.00fps 1600 Kbps
Размер кадра: 704x400
Качество видео: SATRip
Аудиокодек: MP3
Битрейт аудио: MPEG Audio Layer 3 48000Hz stereo 128kbps

MediaInfo:

Формат : AVI
Формат/Информация : Audio Video Interleave
Размер файла : 361 Мбайт
Продолжительность : 29 м.
Общий поток : 1738 Кбит/сек
Программа кодирования : VirtualDubMod 1.5.10.3 | www.virtualdub-fr.org || (build 2550/release)
Библиотека кодирования : VirtualDubMod build 2550/release

Видео
Идентификатор : 0
Формат : MPEG-4 Visual
Профиль формата : Advanced Simple@L5
Параметр BVOP формата : 2
Параметр QPel формата : Нет
Параметр GMC формата : Без точки перехода
Параметр матрицы формата : Default (H.263)
Идентификатор кодека : XVID
Идентификатор кодека/Подсказка : XviD
Продолжительность : 29 м.
Битрейт : 1600 Кбит/сек
Ширина : 704 пикселя
Высота : 400 пикселей
Соотношение сторон : 16:9
Частота кадров : 25,000 кадров/сек
Цветовое пространство : YUV
Субдискретизация насыщенности : 4:2:0
Битовая глубина : 8 бит
Тип развёртки : Прогрессивная
Метод сжатия : С потерями
Бит/(Пиксели*Кадры) : 0.227
Размер потока : 333 Мбайт (92%)
Библиотека кодирования : XviD 64

Аудио
Идентификатор : 1
Формат : MPEG Audio
Версия формата : Version 1
Профиль формата : Layer 3
Идентификатор кодека : 55
Идентификатор кодека/Подсказка : MP3
Продолжительность : 29 м.
Вид битрейта : Постоянный
Битрейт : 128 Кбит/сек
Каналы : 2 канала
Частота : 48,0 КГц
Метод сжатия : С потерями
Размер потока : 26,6 Мбайт (7%)
Выравнивание : Соединение по промежуткам
Продолжительность промежутка : 40 мс. (1,00 видеокадр)
Время предзагрузки промежутка : 504 мс.
Библиотека кодирования : LAME3.98r
Настройки программы : -m s -V 4 -q 0 -lowpass 17 -b 128
Скриншоты:


Детали торрента:
Название:Испанские города 21 века: Саламанка. Филигранный город [выпуск 44] / Ciudades para el siglo: Salamanca. Ciudad y filigrana (2003) SATRip
Дата добавления:19 Фев 2012 18:15:14
Размер:361 MB
Раздают:1
Качают:1
Форум:Клуб кинопутешествий

All rights reserved © 2015-2018