TORRENTS43.XYZ

Скачать Апокалипсис / Apocalypto (2006) BDRemux [1080p]


Апокалипсис / Apocalypto(2006) [1080p]BDRemux
Русское название: Апокалипсис
Оригинальное название: Apocalypto
Год выпуска: 2006
Жанр: Исторический, Боевик, Приключения, Драма

Описание фильма:
Цивилизация Майя до прихода испанских завоевателей. Жестокие и кровопролитные войны с соседними племенами, жертвоприношения людей и животных, повседневная жизнь, обычаи, загадочные мистические ритуалы. Индейцы живут и не знают, что их дни сочтены. Скоро в их владения вторгнутся алчные и жестокие завоеватели...

"Апокалипсис" - натуралистичный, захватывающий, наводящий на размышления новый фильм Мэла Гибсона. Эпическая картина представляет целый пласт прошлого, которого ещё не было на экране, – древний мир, возрожденный благодаря дерзкому замыслу режиссёра. Действие картины происходит на закате эпохи некогда великой цивилизации Майя. Древние Майя процветали в Центральной Америке в течение многих столетий, но великая цивилизация рухнула. Теперь, спустя 500 лет после заката цивилизации Майя, Мэл Гибсон попытался разобраться в причинах исчезновения такой высокоразвитой цивилизации.


Режиссер: Мэл Гибсон
Актеры: Руди Янблад, Далия Эрнандез, Джонатан Брюэр, Моррис Бердйеллоухэд, Карлос Эмилио Баез, Рамирез Амилкар, Израэл Контрерас, Израэль Риос, Мария Изабель Диаз, Эспиридион Акоста Кэш

Продолжительность: 02:18:21
Качество видео: BDRemux
Перевод: Профессиональный двухголосый (П. Гланц, И. Королева)
Субтитры: нет


 
Видеокодек: V_MPEG-4/ISO/AVC
Аудиокодек: DTS
Видео: 1920x1080, 23,4 Mbps(1080p, 23.976 fps, 16:9, High @L4.1)
Аудио 1510 Kbps, 48.0 KГц, 24 бит, 6 ch - двухголосый закадровый

MediaUnfo

Format : Matroska
File size : 24.5 GiB
Duration : 2h 18mn
Overall bit rate : 25.4 Mbps
Encoded date : UTC 2011-08-30 07:35:59
Writing application : mkvmerge v4.9.1 ('Ich will') сборка от Jul 11 2011 23:53:15
Writing library : libebml v1.2.1 + libmatroska v1.1.1

Video #1
ID : 1
Format : AVC
Format/Info : Advanced Video Codec
Format profile : High@L4.1
Format settings, CABAC : Yes
Format settings, ReFrames : 3 frames
Muxing mode : Container profile=Unknown@4.1
Codec ID : V_MPEG4/ISO/AVC
Duration : 2h 18mn
Bit rate : 23.4 Mbps
Width : 1 920 pixels
Height : 1 080 pixels
Display aspect ratio : 16:9
Frame rate : 23.976 fps
Standard : NTSC
Color space : YUV
Chroma subsampling : 4:2:0
Bit depth : 8 bits
Scan type : Progressive
Bits/(Pixel*Frame) : 0.470
Stream size : 22.6 GiB (92%)
Color primaries : BT.709-5, BT.1361, IEC 61966-2-4, SMPTE RP177
Transfer characteristics : BT.709-5, BT.1361
Matrix coefficients : BT.709-5, BT.1361, IEC 61966-2-4 709, SMPTE RP177

Audio #2
ID : 2
Format : DTS
Format/Info : Digital Theater Systems
Codec ID : A_DTS
Duration : 2h 18mn
Bit rate mode : Constant
Bit rate : 1 510 Kbps
Channel(s) : 6 channels
Channel positions : Front: L C R, Side: L R, LFE
Sampling rate : 48.0 KHz
Bit depth : 24 bits
Stream size : 1.46 GiB (6%)
Title : 3/2+1
Language : Russian
Скриншоты:



Скачал сам - не уходи с раздачи, поделись с ближним!
Не забудь сказать -
Приятного просмотра!

Смотреть Online

http://moonwalk.cc/video/2bbb86a123769fb2/iframe
Детали торрента:
Название:Апокалипсис / Apocalypto (2006) BDRemux [1080p]
Дата добавления:30 Авг 2011 20:35:55
Размер:24,5 GB
Раздают:
Качают:0
Форум:Архив Видео

All rights reserved © 2015-2018