TORRENTS43.XYZ

Скачать Beegie Adair - Swingin' With Sinatra (2010) [FLAC|Lossless]<Straight-Ahead Jazz>


Beegie Adair - Swingin' With Sinatra (2010)
Год: 2010
Жанр: Straight-Ahead Jazz
Продолжительность: 00:46:38
Издатель (лейбл): Green Hill
Номер по каталогу: GHD 5678
Наличие сканов в содержимом раздачи: Да

Кодек: FLAC
Битрейт: Lossless
Тип раздачи: tracks+.cue
Описание: Лёгкий, приятный, отдыхающий альбом, который абсолютно ничем не напрягает внимание слушателя. Биги со своим трио играет песни Синатры. Именно играет, а не обыгрывает, поскольку трактовка выдержана максимально близко к классической и импровизация отсутствует как таковая. Из-за этого может создаться впечатление какой-то незавершённости, как-будто звучит аккомпанимент, оставшийся без солиста. Хотя, может быть в этом и заключается задумка?... Джаз без импровизации - это и есть Синатра.
Трек лист:
01. You Make Me Feel So Young 	(03:30)
02. Nice 'N Easy (04:04)
03. Come Rain Or Come Shine (04:50)
04. New York, New York (04:11)
05. Fly Me To The Moon (03:36)
06. Guess I'll Have To Hang
My Tears Out To Dry (04:38)
07. Just In Time (03:39)
08. Come Fly With Me (03:09)
09. Call Me Irresponsible (03:29)
10. Angel Eyes (04:00)
11. The Tender Trap (03:23)
12. Don't Worry 'Bout Me (04:09)

Содержание индексной карты (.CUE):

Код:

REM GENRE Jazz
REM DATE 2010
REM DISCID A30AED0C
REM COMMENT "ExactAudioCopy v1.0b1"
PERFORMER "Beegie Adair"
TITLE "Swingin' With Sinatra"
FILE "01 - You Make Me Feel So Young.flac" WAVE
  TRACK 01 AUDIO
    TITLE "You Make Me Feel So Young"
    PERFORMER "Beegie Adair"
    ISRC USB4U1000017
    FLAGS DCP
    INDEX 01 00:00:00
FILE "02 - Nice 'N Easy.flac" WAVE
  TRACK 02 AUDIO
    TITLE "Nice 'N Easy"
    PERFORMER "Beegie Adair"
    ISRC USB4U1000018
    FLAGS DCP
    INDEX 01 00:00:00
FILE "03 - Come Rain Or Come Shine.flac" WAVE
  TRACK 03 AUDIO
    TITLE "Come Rain Or Come Shine"
    PERFORMER "Beegie Adair"
    ISRC USB4U1000019
    FLAGS DCP
    INDEX 01 00:00:00
FILE "04 - New York, New York.flac" WAVE
  TRACK 04 AUDIO
    TITLE "New York, New York"
    PERFORMER "Beegie Adair"
    ISRC USB4U1000020
    FLAGS DCP
    INDEX 01 00:00:00
FILE "05 - Fly Me To The Moon.flac" WAVE
  TRACK 05 AUDIO
    TITLE "Fly Me To The Moon"
    PERFORMER "Beegie Adair"
    ISRC USB4U1000021
    FLAGS DCP
    INDEX 01 00:00:00
FILE "06 - Guess I'll Have To Hang My Tears Out To Dry.flac" WAVE
  TRACK 06 AUDIO
    TITLE "Guess I'll Have To Hang My Tears Out To Dry"
    PERFORMER "Beegie Adair"
    ISRC USB4U1000022
    FLAGS DCP
    INDEX 01 00:00:00
FILE "07 - Just In Time.flac" WAVE
  TRACK 07 AUDIO
    TITLE "Just In Time"
    PERFORMER "Beegie Adair"
    ISRC USB4U1000022
    FLAGS DCP
    INDEX 01 00:00:00
FILE "08 - Come Fly With Me.flac" WAVE
  TRACK 08 AUDIO
    TITLE "Come Fly With Me"
    PERFORMER "Beegie Adair"
    ISRC USB4U1000024
    FLAGS DCP
    INDEX 01 00:00:00
FILE "09 - Call Me Irresponsible.flac" WAVE
  TRACK 09 AUDIO
    TITLE "Call Me Irresponsible"
    PERFORMER "Beegie Adair"
    ISRC USB4U1000024
    FLAGS DCP
    INDEX 01 00:00:00
FILE "10 - Angel Eyes.flac" WAVE
  TRACK 10 AUDIO
    TITLE "Angel Eyes"
    PERFORMER "Beegie Adair"
    ISRC USB4U1000026
    FLAGS DCP
    INDEX 01 00:00:00
FILE "11 - The Tender Trap.flac" WAVE
  TRACK 11 AUDIO
    TITLE "The Tender Trap"
    PERFORMER "Beegie Adair"
    ISRC USB4U1000027
    FLAGS DCP
    INDEX 01 00:00:00
FILE "12 - Don't Worry 'Bout Me.flac" WAVE
  TRACK 12 AUDIO
    TITLE "Don't Worry 'Bout Me"
    PERFORMER "Beegie Adair"
    ISRC USB4U1000028
    FLAGS DCP
    INDEX 01 00:00:00

Отчёт EAC:

Код:

Exact Audio Copy V1.0 beta 1 from 15. November 2010

EAC extraction logfile from 6. March 2011, 1:30

Beegie Adair / Swingin' With Sinatra

Used drive  : HL-DT-STDVD-RAM GSA-H55N   Adapter: 0  ID: 2

Read mode               : Secure
Utilize accurate stream : Yes
Defeat audio cache      : Yes
Make use of C2 pointers : No

Read offset correction                      : 102
Overread into Lead-In and Lead-Out          : Yes
Fill up missing offset samples with silence : Yes
Delete leading and trailing silent blocks   : No
Null samples used in CRC calculations       : Yes
Used interface                              : Installed external ASPI interface
Gap handling                                : Appended to previous track

Used output format              : User Defined Encoder
Selected bitrate                : 128 kBit/s
Quality                         : High
Add ID3 tag                     : No
Command line compressor         : G:\Program Files\Exact Audio Copy\Encoder\flac.exe
Additional command line options : -V -8 -T "Genre=%m" -T "Artist=%a" -T "Title=%t" -T "Album=%g" -T "Date=%y" -T "Tracknumber=%n" -T "Comment=EAC1.0b1 -8" %s

TOC of the extracted CD

     Track |   Start  |  Length  | Start sector | End sector
    ---------------------------------------------------------
        1  |  0:00.00 |  3:30.09 |         0    |    15758
        2  |  3:30.09 |  4:03.73 |     15759    |    34056
        3  |  7:34.07 |  4:50.37 |     34057    |    55843
        4  | 12:24.44 |  4:11.02 |     55844    |    74670
        5  | 16:35.46 |  3:35.43 |     74671    |    90838
        6  | 20:11.14 |  4:37.67 |     90839    |   111680
        7  | 24:49.06 |  3:39.15 |    111681    |   128120
        8  | 28:28.21 |  3:09.08 |    128121    |   142303
        9  | 31:37.29 |  3:28.64 |    142304    |   157967
       10  | 35:06.18 |  4:00.05 |    157968    |   175972
       11  | 39:06.23 |  3:22.71 |    175973    |   191193
       12  | 42:29.19 |  4:08.43 |    191194    |   209836

Track  1

     Filename F:\WAV\01 - You Make Me Feel So Young.wav

     Pre-gap length  0:00:02.00

     Peak level 98.2 %
     Extraction speed 4.1 X
     Track quality 100.0 %
     Test CRC B5B170B2
     Copy CRC B5B170B2
     Cannot be verified as accurate (confidence 3)  [CC0016D4], AccurateRip returned [C56F8CB5]
     Copy OK

Track  2

     Filename F:\WAV\02 - Nice 'N Easy.wav

     Peak level 98.1 %
     Extraction speed 4.7 X
     Track quality 100.0 %
     Test CRC 4A78DCE1
     Copy CRC 4A78DCE1
     Cannot be verified as accurate (confidence 3)  [9F8A6DDA], AccurateRip returned [E5084F88]
     Copy OK

Track  3

     Filename F:\WAV\03 - Come Rain Or Come Shine.wav

     Peak level 98.2 %
     Extraction speed 5.3 X
     Track quality 100.0 %
     Test CRC EE057C5C
     Copy CRC EE057C5C
     Cannot be verified as accurate (confidence 3)  [3BF0E5E7], AccurateRip returned [09B8E215]
     Copy OK

Track  4

     Filename F:\WAV\04 - New York, New York.wav

     Peak level 98.2 %
     Extraction speed 4.9 X
     Track quality 99.9 %
     Test CRC 3485F613
     Copy CRC 3485F613
     Cannot be verified as accurate (confidence 3)  [53FEB371], AccurateRip returned [9659FDA4]
     Copy OK

Track  5

     Filename F:\WAV\05 - Fly Me To The Moon.wav

     Peak level 98.2 %
     Extraction speed 5.8 X
     Track quality 100.0 %
     Test CRC E87A6A77
     Copy CRC E87A6A77
     Cannot be verified as accurate (confidence 3)  [844AAA89], AccurateRip returned [49D0C191]
     Copy OK

Track  6

     Filename F:\WAV\06 - Guess I'll Have To Hang My Tears Out To Dry.wav

     Peak level 97.9 %
     Extraction speed 6.4 X
     Track quality 100.0 %
     Test CRC 01CB65DF
     Copy CRC 01CB65DF
     Cannot be verified as accurate (confidence 3)  [B1AE92FD], AccurateRip returned [A80F4953]
     Copy OK

Track  7

     Filename F:\WAV\07 - Just In Time.wav

     Peak level 97.8 %
     Extraction speed 6.4 X
     Track quality 100.0 %
     Test CRC 8044264D
     Copy CRC 8044264D
     Cannot be verified as accurate (confidence 3)  [C7CC0800], AccurateRip returned [328B277C]
     Copy OK

Track  8

     Filename F:\WAV\08 - Come Fly With Me.wav

     Peak level 98.2 %
     Extraction speed 6.5 X
     Track quality 100.0 %
     Test CRC EF12460E
     Copy CRC EF12460E
     Cannot be verified as accurate (confidence 3)  [D8BF0E07], AccurateRip returned [D6F800BB]
     Copy OK

Track  9

     Filename F:\WAV\09 - Call Me Irresponsible.wav

     Peak level 98.2 %
     Extraction speed 5.8 X
     Track quality 99.9 %
     Test CRC 51EF0843
     Copy CRC 51EF0843
     Cannot be verified as accurate (confidence 3)  [E4583368], AccurateRip returned [4117ED07]
     Copy OK

Track 10

     Filename F:\WAV\10 - Angel Eyes.wav

     Peak level 98.1 %
     Extraction speed 6.1 X
     Track quality 99.9 %
     Test CRC 76E794A1
     Copy CRC 76E794A1
     Cannot be verified as accurate (confidence 3)  [06AB7CF4], AccurateRip returned [EFCF2312]
     Copy OK

Track 11

     Filename F:\WAV\11 - The Tender Trap.wav

     Peak level 98.2 %
     Extraction speed 7.0 X
     Track quality 100.0 %
     Test CRC 65C42DDF
     Copy CRC 65C42DDF
     Cannot be verified as accurate (confidence 3)  [82DA8A4E], AccurateRip returned [22FC74BE]
     Copy OK

Track 12

     Filename F:\WAV\12 - Don't Worry 'Bout Me.wav

     Peak level 98.1 %
     Extraction speed 5.3 X
     Track quality 100.0 %
     Test CRC 93998AF4
     Copy CRC 93998AF4
     Cannot be verified as accurate (confidence 3)  [F3563414], AccurateRip returned [6DE0157C]
     Copy OK

No tracks could be verified as accurate
You may have a different pressing from the one(s) in the database

No errors occurred

End of status report

Отчёт auCDtect Task Manager:

Код:

-----------------------

DON'T MODIFY THIS FILE

-----------------------

PERFORMER: auCDtect Task Manager, ver. 1.5.1RC4 build 1.5.1.5
Copyright (c) 2008-2010 y-soft. All rights reserved
http://y-soft.org

ANALYZER: auCDtect: CD records authenticity detector, version 0.8.2
Copyright (c) 2004 Oleg Berngardt. All rights reserved.
Copyright (c) 2004 Alexander Djourik. All rights reserved.

FILE: 12 - Don't Worry 'Bout Me.flac
  Size: 22937089 Hash: 03867B001B649677EFA82BBEF188EE5B Accuracy: -m0
  Conclusion: CDDA 100%
  Signature: 3FF8BFD23453F9FAE392A4D11F280C053B213689
FILE: 11 - The Tender Trap.flac
  Size: 21993092 Hash: 7820C190934295CAB7416286D3A68EE5 Accuracy: -m0
  Conclusion: CDDA 100%
  Signature: 41734269ADB1FF24096E4CCD21B263F32318BF75
FILE: 10 - Angel Eyes.flac
  Size: 22508616 Hash: B242B48344D1D180A92DE31BE181DBCE Accuracy: -m0
  Conclusion: CDDA 100%
  Signature: B2B09931083297695A8C01D52B4AA565949F50C1
FILE: 09 - Call Me Irresponsible.flac
  Size: 21081408 Hash: AA1E7D2FE398533CF90A26F84F4B7B0E Accuracy: -m0
  Conclusion: CDDA 100%
  Signature: 69E618380FD341F454EB095C1824AE671C95FDD9
FILE: 08 - Come Fly With Me.flac
  Size: 18607165 Hash: E96A57E63A5EE85A6D4BD788CC801687 Accuracy: -m0
  Conclusion: CDDA 99%
  Signature: 1CAB811CFE5F1D41919526F1E9E07516A2552C4B
FILE: 07 - Just In Time.flac
  Size: 21154140 Hash: 3424288991135D15C295684FE4F3478E Accuracy: -m0
  Conclusion: CDDA 99%
  Signature: B174C8AA3380F9802965F3809304457617888235
FILE: 06 - Guess I'll Have To Hang My Tears Out To Dry.flac
  Size: 25658526 Hash: AEE4B3F6C4569294ADB1214E7D74B7AD Accuracy: -m0
  Conclusion: CDDA 100%
  Signature: 3772ACBA1823EF237F69D5E07520A93FDF8EA1F3
FILE: 05 - Fly Me To The Moon.flac
  Size: 21983239 Hash: 8FC8634C9BBCB49F221C143093280C96 Accuracy: -m0
  Conclusion: CDDA 99%
  Signature: BEF0E04893E0FCA5F12D25458E4CD7332F85EBA3
FILE: 04 - New York, New York.flac
  Size: 27253679 Hash: 80313D8541D1116D8A538FCC4D16B21C Accuracy: -m0
  Conclusion: CDDA 99%
  Signature: 0A9340E67A9570F080350C6AAD23B5D5D32A11F8
FILE: 03 - Come Rain Or Come Shine.flac
  Size: 27714046 Hash: C70E88CDD68AE5B3EE7143B95BA1CF84 Accuracy: -m0
  Conclusion: CDDA 100%
  Signature: 2721114BFEA3B613340ED67CAE02853B0668260D
FILE: 02 - Nice 'N Easy.flac
  Size: 23740926 Hash: 9366C0F3BC13D010AF41CB75ED442651 Accuracy: -m0
  Conclusion: CDDA 100%
  Signature: 69DC890A1BFA020281A1B1320601BB6121AFEBDB
FILE: 01 - You Make Me Feel So Young.flac
  Size: 20713196 Hash: 0B809C340DD07764C7B74F41E6E38637 Accuracy: -m0
  Conclusion: CDDA 100%
  Signature: B80216B89B33E1DC37A3252DFDE5F5EFD9BC2D89


Каталог моих раздач посвященных джазу

James Moody - Timeless Aura (1976)
Donald Harrison - Nouveau Swing (1997)
Анатолий Кролл - Оркестр 'Современник' - Мы из джаза (1983)
Matt Bianco - 11 альбомов (1984-2009)
Denis Solee - 2 альбома (1998, 2008)
The Jim Hall Quartet - All Across the City (ремастер 2003) (1989)
Ettore Stratta & The Royal Philharmonic Orchestra - Symphonic Bossa Nova (1994)
Duke Ellington - Jazz & Blues Collection (1995)
Duke Ellington And Johnny Hodges - Back To Back Play The Blues (1997)
Keely Smith - Swing, Swing, Swing (1999)
Glenn Miller - Millenium Collection (2CD) (2000)
Saul Berson Quartet - 2 CD (2002, 2007)
Rod Stewart - The Great American Songbook (Vol.I - V) (2002 - 2010)
Lincoln Center Jazz Orchestra with Wynton Marsalis - Plays The Music Of Duke Ellington (2004)
Louis Armstrong & Friends - Duets With Louis Armstrong (2004)
Beegie Adair - 5 альбомов (2004-2011)
Cedar Walton Trio - Midnight Waltz (2005)
The Swingfield Big Band - Big Band Swing (2005)
Paul Anka - Rock Swings (2005)
Denis Solee with The Beegie Adair Trio - 2 альбома (2005, 2007)
Manhattan Jazz Quintet - Come Together & V.S.O.P. (2005, 2008)
Jeff Healey & The Jazz Wizards - It's Tight Like That (2006)
Glenn Miller Orchestra - The Very Best of Swing (2007)
Prince Alec - Glam & Love (2007)
Eric Vloeimans - Hyper (2008)
Johnny Varro Featuring Ken Peplowski - Two Legends Of Jazz (2008)
Moutin Reunion Quartet - Soul Dancers (2009)
Bert Ambrose And His Orchestra - The Essential Collection (2CD) (2009)
Louis Armstrong - 100 Hits Legends (5CD) (2010)
Jasper Bergstrom - A Saxy Lounge Experience (2010)
Алексей Козлов - Lonely Dandy / Одинокий денди (2010)
Steve Cole - Moonlight (2010)
Gordon Goodwin's Big Phat Band - That's How We Roll (2011)
Jools Holland - Finding The Keys. The Best Of (2011)
Del McCoury Band & The Preservation Hall Jazz Band - American Legacies (2011)
Ben Webster - Three Classic Albums (2 CD) (2011)
Sam Levine - Smooth Sax Romance. A Romantic Smooth Jazz Collection Featuring Saxophone (2011)
Bobby Sanabria, Manhattan School Of Music Afro-Cuban Jazz Orchestra - Tito Puente Masterworks Live!!! (2011)
VA - The Colossal Saxophone Sessions (2СD) (1992)
VA - Jazz Legends. Saxophone (2CD) (2002)
VA - Swing. Most Wanted (2005)
VA - Jazz Piano History (20 CD-set) (2006)
VA - Swinging Jazz Piano (2006)
VA - Immer wieder tanzen. Swing in Deutschland 1934-1948 (3CD) (2007)
VA - Bar Classics Late Night Classics and Jazz (3CD) (2008)
VA - The Best Of Big Band (4CDs) (2008)
VA - Let's Swing (2008)
VA - Ultimate Funk Grooves For Sax (2010)
VA - The Very Best Of Soft Sax (2010)
VA - The Best From Lossless - Jazz (2010)
VA - Jazz Legends Forever Sing Me a Love Song (2CD) (2010)
VA - Jazz by RoNikEr (2011)
VA - Big City Bar, Vol. 02 (2CD) (2011)

Каталог моих раздач, посвященных фортепианной музыке

Winifred Atwell - 4 альбома (1964 - 2009)
Erwin Wiener - Piano nostalgico vol.2 (1976)
Mladen Franko & The Norman Candler Strings - Piano Talk (1989)
Raul Di Blasio - Сборник 7СD (1991-2008)
Bernward Koch - 5 альбомов (1995-2009)
Linda Genteel - World's Greatest Love Songs (1995)
Jonathan Cain - Piano With A View (1995)
Giovanni Marradi - 4CD (1996, 1998, 2010)
Роман Коляда - Trinity (2001), Angels Return (2011)
Kevin Asbjornson - Awakening (2002)
Robin Spielberg - The Christmas Collection (2002)
Greg Maroney - 2 альбома (2003, 2005)
Beegie Adair - 5 альбомов (2004-2011)
Denis Solee with The Beegie Adair Trio - 2 альбома (2005, 2007)
Owen Richards - Wishes (2006)
Yahan Team & Stuart Jones - Love eternal. Eternal dream. Romantic piano (2007)
Fiona Joy Hawkins - Blue Dream (2008)
Jim Brickman - Valentine (2008)
David Michael Cass - The Worlds Greatest Piano Album (2CD) (2009)
Wang Wei - 5 альбомов (2009, 2010)
OVA - Нежность (EP) (2010)
OVA - Вспоминай меня (2011)
VA - Moonlight Piano - Lover's Rhapsody (1996)
VA - Grand Piano Narada Anniversary Collection (2CD) (1997)
VA - Romantic Collection. Piano (2006)
VA - Ten Of The Famous Piano Music (2006)
VA - Jazz Piano History (20 CD-set) (2006)
VA - Swinging Jazz Piano (2006)
VA - Twin Piano Instrumental (6CD) (2007)
VA - Romantic Melodies - Velvet Piano (2007)
VA - Piano Dreams. Club Lounge Classics (2CD) (2009)
VA - Romantic Piano Compilation (2009)
VA - Feelings Enchanting Piano Melodies (2CD) (2009)
VA - The most relaxing Piano album in the world…ever! (2CD) (2009)
VA - The most Romantic Piano album in the world…ever! (2CD) (2009)
VA - The Best Of Piano (2009)
VA - The Pianomen. A LoungeLegend Compilation (2010)




Поглощение/вытеснение
Только с согласия релизера

gvm55

Реставрация от: gvm55
Детали торрента:
Название:Beegie Adair - Swingin' With Sinatra (2010) [FLAC|Lossless]<Straight-Ahead Jazz>
Дата добавления:19 Авг 2011 14:41:19
Размер:277 MB
Раздают:
Качают:0
Форум:Архив Музыки

All rights reserved © 2015-2018