TORRENTS43.XYZ

Скачать Рио 3D / Rio 3D (2011) HDRip [Анаглиф]


Рио 3D / Rio 3D (2011) HDRip
Год выпуска: 2011
Жанр: Мультфильм, Комедия, Приключения

Описание:
Попугай-зануда оставляет свою уютную сытую жизнь в клетке и из Миннесоты отправляется в Рио-де-Жанейро, город грез всех и каждого. Неминуемые встречи, препятствия, опасности и любовь к последней представительнице его рода заставляют нашего героя по-другому посмотреть на мир и из скучного домоседа превратиться в милого симпатягу, узнавшего цену дружбе и смелости.

Режиссер: Карлос Салдана
Персонажи: Карен Дишер, Джейсон Фриччион, София Скарпа Салдана, Лесли Манн, Келли Китон, Джесси Айзенберг, Ванда Сайкес, Джейн Линч, Родриго Санторо, Грасинья Лепоранс

Продолжительность: 01:35:57
Перевод: Дублированный



Видеокодек: Xvid
Битрейт видео: ~1581 kb/s
Размер кадра: 720 x 304
Качество видео: HDRip
Аудиокодек: AC3 5.1
Битрейт аудио: 384 kb/s
Сэмпл: Ссылка

Формат 3D

Просмотр возможен на любом цветном мониторе или телевизоре.
Для просмотра 3D версии требуются анаглифные очки.
Цвета очков: red-cyan (красно-сине-зеленые)

Media Info

General
Complete name : D:\Видео\Rio.3D.2011.XviD.HDRip.avi
Format : AVI
Format/Info : Audio Video Interleave
File size : 1.32 GiB
Duration : 1h 35mn
Overall bit rate : 1 975 Kbps
Writing application : VirtualDubMod 1.5.10.3 | www.virtualdub-fr.org || (build 2550/release)
Writing library : VirtualDubMod build 2550/release

Video
ID : 0
Format : MPEG-4 Visual
Format profile : Advanced Simple@L5
Format settings, BVOP : Yes
Format settings, QPel : No
Format settings, GMC : No warppoints
Format settings, Matrix : Default (H.263)
Muxing mode : Packed bitstream
Codec ID : XVID
Codec ID/Hint : XviD
Duration : 1h 35mn
Bit rate : 1 581 Kbps
Width : 720 pixels
Height : 304 pixels
Display aspect ratio : 2.35:1
Frame rate : 23.976 fps
Color space : YUV
Chroma subsampling : 4:2:0
Bit depth : 8 bits
Scan type : Progressive
Bits/(Pixel*Frame) : 0.301
Stream size : 1.06 GiB (80%)
Writing library : XviD 1.1.2 (UTC 2006-11-01)

Audio
ID : 1
Format : AC-3
Format/Info : Audio Coding 3
Mode extension : CM (complete main)
Codec ID : 2000
Duration : 1h 35mn
Bit rate mode : Constant
Bit rate : 384 Kbps
Channel(s) : 6 channels
Channel positions : Front: L C R, Side: L R, LFE
Sampling rate : 48.0 KHz
Bit depth : 16 bits
Video delay : 28ms
Stream size : 263 MiB (19%)
Alignment : Split accross interleaves
Interleave, duration : 42 ms (1.00 video frame)
Interleave, preload duration : 500 ms
Скриншоты:


Смотреть Online

http://moonwalk.cc/video/85d8b196d20631c08814dcae4c45c5a1/iframe
Детали торрента:
Название:Рио 3D / Rio 3D (2011) HDRip [Анаглиф]
Дата добавления:27 Июл 2011 22:06:38
Размер:1,32 GB
Раздают:
Качают:0
Форум:Зарубежные Мультфильмы (3D)

All rights reserved © 2015-2018