TORRENTS43.XYZ

Скачать Scott Henderson - Tore Down House (1997) [FLAC|Lossless]<Blues-Rock>


Scott Henderson - Tore Down House (1997)
Год: 1997
Жанр: Blues-Rock
Продолжительность: 01:03:52
Label: Mesa/Bluemoon Recordings, USA
Catalog #: 2-92722

Кодек: FLAC
Битрейт: Lossless

Трек лист:
1.Dolemite (05:52)
2.Tore Down House (07:27)
3.Metermaid (04:29)
4.I Hate You (04:38)
5.Gittar School (05:10)
6.Xanax (05:38)
7.Continuum (04:00)
8.You Get off on Me (03:53)
9.Mocha (07:29)
10.Harpoon (06:46)
11.Same as You (04:36)

Отчёт ЕАС:

Код:

Exact Audio Copy V0.99 prebeta 1 from 25. May 2007

Отчёт EAC об извлечении, выполненном 1. мая 2011, 14:26

Scott Henderson / Tore Down House

Дисковод: TOSHIBA CD/DVDW SD-R5372   Adapter: 0  ID: 0

Режим чтения                 : Достоверность
Использование точного потока : Да
Отключение кэша аудио        : Да
Использование указателей C2  : Да

Коррекция смещения при чтении                 : 704
Способность читать области Lead-in и Lead-out : Нет
Заполнение пропущенных сэмплов тишиной        : Да
Удаление блоков с тишиной в начале и конце    : Нет
Интерфейс                                     : Встроенный Win32-интерфейс для Win NT/2000

Выходной формат          : Пользовательский кодировщик
Выбранный битрейт        : 768 kBit/s
Качество                 : Высокий
Добавление ID3-тэга      : Нет
Утилита сжатия           : C:\Program Files\Exact Audio Copy\FLAC\FLAC.EXE
Дополнительные параметры : -6 -V -T "ARTIST=%a" -T "TITLE=%t" -T "ALBUM=%g" -T "DATE=%y" -T "TRACKNUMBER=%n" -T "GENRE=%m" -T "COMMENT=%e" %s -o %d

TOC извлечённого CD

     Трек |   Старт  | Длительность | Начальный сектор | Конечный сектор
    ---------------------------------------------------------------------
       1  |  0:00.32 |    5:52.35   |          32      |      26466
       2  |  5:52.67 |    7:37.45   |       26467      |      60786
       3  | 13:30.37 |    4:29.58   |       60787      |      81019
       4  | 18:00.20 |    4:38.07   |       81020      |     101876
       5  | 22:38.27 |    5:10.40   |      101877      |     125166
       6  | 27:48.67 |    5:38.63   |      125167      |     150579
       7  | 33:27.55 |    4:00.50   |      150580      |     168629
       8  | 37:28.30 |    3:53.20   |      168630      |     186124
       9  | 41:21.50 |    7:29.45   |      186125      |     219844
      10  | 48:51.20 |    6:46.50   |      219845      |     250344
      11  | 55:37.70 |    8:14.32   |      250345      |     287426

Характеристики диапазона извлечения и сообщения об ошибках

Выбранный диапазон

     Имя файла H:\MY MUSIC\Scott Henderson - Tore Down House.wav

     Пиковый уровень 96.6 %
     Качество диапазона 100.0 %
     CRC копии 5B751D21
     Копирование... OK

Ошибок не произошло

Конец отчёта

Отчёт auCDtect Task manager:

Код:

-----------------------

DON'T MODIFY THIS FILE

-----------------------

PERFORMER: auCDtect Task Manager, ver. 1.5.1RC4 build 1.5.1.5
Copyright (c) 2008-2010 y-soft. All rights reserved
http://y-soft.org

ANALYZER: auCDtect: CD records authenticity detector, version 0.8.2
Copyright (c) 2004 Oleg Berngardt. All rights reserved.
Copyright (c) 2004 Alexander Djourik. All rights reserved.

FILE: Scott Henderson - Tore Down House.flac
  Size: 440531278 Hash: 463533270576BDFA2E31CCC906967D9A Accuracy: -m0
  Conclusion: CDDA 100%
  Signature: 19618596CF0DB3110B2E987502A02C43D3773117
Детали торрента:
Название:Scott Henderson - Tore Down House (1997) [FLAC|Lossless]<Blues-Rock>
Дата добавления:01 Май 2011 14:28:34
Размер:431 MB
Раздают:1
Качают:0
Форум:Blues, Soul (Lossless)

All rights reserved © 2015-2018