TORRENTS43.XYZ

Скачать VA - Earth - Compiled by Dj Zen (2010) [FLAC|Lossless]<PsyChill, Downtempo, Goa Trance, Ambient>


VA - Earth - Compiled by Dj Zen (2010)

Год: 2010 | Жанр: PsyChill, Downtempo, Goa Trance, Ambient | Продолжительность: 01:19:55
Кодек: FLAC | Битрейт: Lossless | Тип рипа: image+.cue

Трек лист:

01. Vibrasphere feat. Iz - Tierra Azul (Vocal Version) - 6:57
02. C.J Catalizer - 2012 - 7:56
03. C.J Catalizer vs. Zymosis - I'll Be There - 9:48
04. Tentura vs. Zymosis - Unity Of Cultures - 7:33
05. Zymosis vs. Tentura - Magic Species (Kadasarva Rmx) - 8:00
06. Ra - March Of The Lunar Priests - 7:56
07. Lab's Cloud - Raining Over The Sun - 8:29
08. Chronos - Ants World - 6:44
09. Asura - An Talamh - 9:24
10. Chi A.D - Lost Island - 7:03

Отчёт ЕАС:

Exact Audio Copy V0.99 prebeta 5 from 4. May 2009

EAC extraction logfile from 16. April 2010, 14:33

Various Artists / EARTH - Compiled by Dj Zen

Used drive : Optiarc DVD RW AD-7220A Adapter: 1 ID: 2

Read mode : Secure
Utilize accurate stream : Yes
Defeat audio cache : Yes
Make use of C2 pointers : No

Read offset correction : 6
Overread into Lead-In and Lead-Out : No
Fill up missing offset samples with silence : Yes
Delete leading and trailing silent blocks : No
Null samples used in CRC calculations : Yes
Used interface : Installed external ASPI interface

Used output format : User Defined Encoder
Selected bitrate : 1024 kBit/s
Quality : High
Add ID3 tag : No
Command line compressor : C:\Program Files\Exact Audio Copy\Flac\flac.exe
Additional command line options : -8 -V -T "ARTIST=%a" -T "TITLE=%t" -T "ALBUM=%g" -T "DATE=%y" -T "TRACKNUMBER=%n" -T "GENRE=%m" -T "COMMENT=%e" %s -o %d

TOC of the extracted CD

Track | Start | Length | Start sector | End sector
---------------------------------------------------------
1 | 0:00.00 | 6:57.02 | 0 | 31276
2 | 6:57.02 | 7:56.27 | 31277 | 67003
3 | 14:53.29 | 9:48.08 | 67004 | 111111
4 | 24:41.37 | 7:33.57 | 111112 | 145143
5 | 32:15.19 | 8:00.34 | 145144 | 181177
6 | 40:15.53 | 7:56.44 | 181178 | 216921
7 | 48:12.22 | 8:29.74 | 216922 | 255170
8 | 56:42.21 | 6:44.01 | 255171 | 285471
9 | 63:26.22 | 9:24.71 | 285472 | 327842
10 | 72:51.18 | 7:03.66 | 327843 | 359633

Range status and errors

Selected range

Filename Y:\_EAC_New\Various - EARTH - Compiled by Dj Zen.wav

Peak level 98.9 %
Range quality 100.0 %
Test CRC 0FCD6D24
Copy CRC 0FCD6D24
Copy OK

No errors occurred

AccurateRip summary

Track 1 not present in database
Track 2 not present in database
Track 3 not present in database
Track 4 not present in database
Track 5 not present in database
Track 6 not present in database
Track 7 not present in database
Track 8 not present in database
Track 9 not present in database
Track 10 not present in database

None of the tracks are present in the AccurateRip database

End of status report

Отчёт Audiochecker:

AUDIOCHECKER v2.0 beta (build 457) - by Dester - opdester@freemail.hu
~~~~~~~~~~~~~~~~~~~~~~~~~~~~~~~~~~
-=== DO NOT EDIT THIS FILE! ===-

Path: ...\2010 Compiled by Dj Zen

1 -=- Various - EARTH - Compiled by Dj Zen.flac -=- CDDA (100%)

166137140
YouTube

Vibrasphere feat. Iz - Tierra Azul (Vocal Version)

CJ Catalizer -2012

Релиз посвящается несравненной Мисс Relax

Детали торрента:
Название:VA - Earth - Compiled by Dj Zen (2010) [FLAC|Lossless]<PsyChill, Downtempo, Goa Trance, Ambient>
Дата добавления:07 Сен 2010 00:16:32
Размер:499 MB
Раздают:1
Качают:0
Форум:Psychedelic, psytrance, fullon (Lossless)

All rights reserved © 2015-2018