TORRENTS43.XYZ

Скачать Tape Five - Tonight Josephine! (2010) [FLAC|Lossless]<Swing, Electro, NuJazz, Easy Listening>


Tape Five - Tonight Josephine! (2010)
Год: 2010
Жанр: Swing, Electro, NuJazz, Easy Listening
Продолжительность: 00:48:58

Кодек: FLAC
Битрейт: Lossless
Тип рипа: image + .cue

Треклист:
01. Introduction Back In Time
02. A Cool Cat In Town (feat. Brenda Boykin)
03. Bad Boy Good Man (feat. Henrik Wager)
04. Pantaloons (feat. Yuliet Topaz)
05. Dixie Biscuit (feat. Henrik Wager)
06. Madame Coquette (feat. Yuliet Topaz)
07. Far Far Away Charles Tone (Charles-Tone mix feat. Brenda Boykin)
08. Intermezzo Speakeasy
09. The Flappers Delight (feat. Yuliet Topaz)
10. Birds Like It (feat. Iain Mackenzie)
11. Pousse L'Amour (feat. Yuliet Topaz)
12. The Smurf (Tape Five Remix instr.)
13. The Sky Is Not The Limit (feat. Iain Mackenzie)
14. Alcazar (instr.)

Отчёт ЕАС:

Код:
Exact Audio Copy V0.99 prebeta 4 from 23. January 2008

EAC extraction logfile from 17. October 2008, 16:03

Tape Five / Bossa For A Coup

Used drive  : SONY    CDRW/DVD CRX835E   Adapter: 1  ID: 0

Read mode               : Secure
Utilize accurate stream : Yes
Defeat audio cache      : Yes
Make use of C2 pointers : No

Read offset correction                      : 6
Overread into Lead-In and Lead-Out          : No
Fill up missing offset samples with silence : Yes
Delete leading and trailing silent blocks   : No
Null samples used in CRC calculations       : Yes
Used interface                              : Installed external ASPI interface

Used output format : Internal WAV Routines
Sample format      : 44.100 Hz; 16 Bit; Stereo

TOC of the extracted CD

     Track |   Start  |  Length  | Start sector | End sector
    ---------------------------------------------------------
        1  |  0:00.00 |  0:21.71 |         0    |     1645
        2  |  0:21.71 |  3:54.48 |      1646    |    19243
        3  |  4:16.44 |  3:51.27 |     19244    |    36595
        4  |  8:07.71 |  4:01.23 |     36596    |    54693
        5  | 12:09.19 |  4:07.33 |     54694    |    73251
        6  | 16:16.52 |  4:04.21 |     73252    |    91572
        7  | 20:20.73 |  4:00.49 |     91573    |   109621
        8  | 24:21.47 |  3:27.11 |    109622    |   125157
        9  | 27:48.58 |  3:52.65 |    125158    |   142622
       10  | 31:41.48 |  0:36.09 |    142623    |   145331
       11  | 32:17.57 |  3:52.24 |    145332    |   162755
       12  | 36:10.06 |  4:51.66 |    162756    |   184646
       13  | 41:01.72 |  3:56.37 |    184647    |   202383
       14  | 44:58.34 |  4:00.19 |    202384    |   220402
       15  | 48:58.53 |  4:25.36 |    220403    |   240313
       16  | 53:24.14 |  5:16.47 |    240314    |   264060
       17  | 58:40.61 |  3:40.47 |    264061    |   280607

Range status and errors

Selected range

     Filename C:\Documents and Settings\yglwk09t\My Documents\Tape Five - Bossa For A Coup.wav

     Peak level 100.0 %
     Range quality 100.0 %
     Copy CRC ED167B8D
     Copy OK

No errors occurred

End of status report

Отчёт Audiochecker:

Код:
AUDIOCHECKER v2.0 beta (build 457) - by Dester - opdester@freemail.hu
~~~~~~~~~~~~~~~~~~~~~~~~~~~~~~~~~~
-=== НЕ РЕДАКТИРУЙТЕ ЭТОТ ФАЙЛ! ===-

Путь: ...\Tape Five - 2008 - Bossa For A Coup [FLAC]

Сводка 99,94% CDDA

233444404



Поглощение/вытеснение
Только с согласия релизера

Pashketan
Детали торрента:
Название:Tape Five - Tonight Josephine! (2010) [FLAC|Lossless]<Swing, Electro, NuJazz, Easy Listening>
Дата добавления:28 Июн 2010 15:46:31
Размер:351 MB
Раздают:1
Качают:0
Форум:Jazz (Lossless)

All rights reserved © 2015-2018