TORRENTS43.XYZ

Скачать Первому игроку приготовиться / Ready Player One (2018) BDRip 3D [H264/1080p] [Вертикальная анаморфная стереопара]


Первому игроку приготовиться / Ready Player One (2018) BDRip 3D
Производство: США / Warner Bros. Pictures
Жанр: Фантастика, боевик, приключения

Режиссер: Стивен Спилберг
Актеры: Тай Шеридан, Оливия Кук, Бен Мендельсон, Лина Уэйте, ТиДжей Миллер, Саймон Пегг, Марк Райлэнс, Филип Чжао, Уин Морисаки, Ханна Джон-Кэймен ...

Описание:
Действие фильма происходит в 2045 году, мир погружается в хаос и находится на грани коллапса. Люди ищут спасения в игре OASIS — огромной вселенной виртуальной реальности. Ее создатель, гениальный и эксцентричный Джеймс Холлидэй, оставляет уникальное завещание. Все его колоссальное состояние получит игрок, первым обнаруживший цифровое «пасхальное яйцо», которое миллиардер спрятал где-то на просторах OASISа. Запущенный им квест охватывает весь мир. Совершенно негероический парень по имени Уэйд Уоттс решает принять участие в состязании, с головой бросаясь в головокружительную, искажающую реальность погоню за сокровищами по фантастической вселенной, полной загадок, открытий и опасностей.


Возраст: 12+ (зрителям, достигшим 12 лет)
Рейтинг MPAA: PG-13 (детям до 13 лет просмотр нежелателен)
Дата мировой премьеры: 11 марта 2018
Дата российской премьеры: 29 марта 2018

Релиз от: Torrents43.xyz
Продолжительность: 02:19:58
Качество видео: BDRip 3D (batonchik)
Перевод: Дублированный (Дублированный BD CEE)
Субтитры: Русские (forced, Full)

Видео: H.264/AVC, 1920x1080 (16:9), ~ 9300 kbps, 23.976 fps
Аудио 1: AC-3, 6 ch, 384 Kbps | Русский
Аудио 2: AC-3, 6 ch, 384 Kbps | Английский (Оригинал)

h.264 log:

y4m [info]: 1920x1080p 1:1 @ 24000/1001 fps (cfr)
x264 [info]: using SAR=1/1
x264 [info]: using cpu capabilities: MMX2 SSE2Fast SSSE3 SSE4.2 AVX
x264 [info]: profile High, level 4.1
x264 [info]: frame I:1481 Avg QP:17.93 size:157783
x264 [info]: frame P:62270 Avg QP:19.35 size: 77078
x264 [info]: frame B:137606 Avg QP:20.57 size: 34374

MediaInfo:


General
Complete name :\Первому игроку приготовиться_Ready Player One (2018) BDRip.3D.Half-T&B.1080p.torrents43.xyzv
Format : Matroska
Format version : Version 4 / Version 2
File size : 9.87 GiB
Duration : 2 h 19 min
Overall bit rate : 10.1 Mb/s
Movie name : Первому игроку приготовиться_Ready Player One (2018) BDRip.3D.Half-T&B.1080p.torrents43.xyz />Encoded date : UTC 2018-07-11 19:16:49
Writing application : mkvmerge v18.0.0 ('Apricity') 64-bit
Writing library : libebml v1.3.5 + libmatroska v1.4.8

Video
ID : 1
Format : AVC
Format/Info : Advanced Video Codec
Format profile : High@L4.1
MultiView_Count : 2
MultiView_Layout : Top-Bottom (left eye first)
Format settings : CABAC / 4 Ref Frames
Format settings, CABAC : Yes
Format settings, ReFrames : 4 frames
Codec ID : V_MPEG4/ISO/AVC
Duration : 2 h 19 min
Bit rate : 9 300 kb/s
Width : 1 920 pixels
Height : 1 080 pixels
Display aspect ratio : 16:9
Frame rate mode : Constant
Frame rate : 23.976 (24000/1001) FPS
Color space : YUV
Chroma subsampling : 4:2:0
Bit depth : 8 bits
Scan type : Progressive
Bits/(Pixel*Frame) : 0.187
Stream size : 9.09 GiB (92%)
Title : Первому игроку приготовиться_Ready Player One (2018) BDRip.3D.Half-T&B.1080p.torrents43.xyz />Writing library : x264 core 155 r2901 7d0ff22
Encoding settings : cabac=1 / ref=4 / deblock=1:-2:-2 / analyse=0x3:0x133 / me=umh / subme=9 / psy=1 / psy_rd=1.00:0.25 / mixed_ref=1 / me_range=16 / chroma_me=1 / trellis=2 / 8x8dct=1 / cqm=0 / deadzone=6,6 / fast_pskip=1 / chroma_qp_offset=-4 / threads=12 / lookahead_threads=1 / sliced_threads=0 / nr=0 / decimate=0 / interlaced=0 / bluray_compat=0 / constrained_intra=0 / bframes=3 / b_pyramid=2 / b_adapt=2 / b_bias=0 / direct=3 / weightb=1 / open_gop=0 / weightp=2 / keyint=250 / keyint_min=23 / scenecut=40 / intra_refresh=0 / rc_lookahead=60 / rc=crf / mbtree=1 / crf=19.0 / qcomp=0.80 / qpmin=0 / qpmax=69 / qpstep=4 / vbv_maxrate=62500 / vbv_bufsize=78125 / crf_max=0.0 / nal_hrd=none / filler=0 / frame-packing=4 / ip_ratio=1.10 / aq=1:0.50
Language : English
Default : Yes
Forced : No
Color range : Limited
Matrix coefficients : BT.709

Audio #1
ID : 2
Format : AC-3
Format/Info : Audio Coding 3
Codec ID : A_AC3
Duration : 2 h 19 min
Bit rate mode : Constant
Bit rate : 384 kb/s
Channel(s) : 6 channels
Channel positions : Front: L C R, Side: L R, LFE
Sampling rate : 48.0 kHz
Frame rate : 31.250 FPS (1536 SPF)
Bit depth : 16 bits
Compression mode : Lossy
Stream size : 384 MiB (4%)
Title : Дубляж (CEE)
Language : Russian
Service kind : Complete Main
Default : Yes
Forced : No

Audio #2
ID : 3
Format : AC-3
Format/Info : Audio Coding 3
Codec ID : A_AC3
Duration : 2 h 19 min
Bit rate mode : Constant
Bit rate : 384 kb/s
Channel(s) : 6 channels
Channel positions : Front: L C R, Side: L R, LFE
Sampling rate : 48.0 kHz
Frame rate : 31.250 FPS (1536 SPF)
Bit depth : 16 bits
Compression mode : Lossy
Stream size : 384 MiB (4%)
Title : Original AC3
Language : English
Service kind : Complete Main
Default : No
Forced : No

Text #1
ID : 4
Format : PGS
Muxing mode : zlib
Codec ID : S_HDMV/PGS
Codec ID/Info : Picture based subtitle format used on BDs/HD-DVDs
Duration : 2 h 18 min
Bit rate : 48.5 kb/s
Count of elements : 2824
Stream size : 48.2 MiB (0%)
Title : Russian 3D (BD SUP) Полные
Language : Russian
Default : No
Forced : No

Text #2
ID : 5
Format : PGS
Muxing mode : zlib
Codec ID : S_HDMV/PGS
Codec ID/Info : Picture based subtitle format used on BDs/HD-DVDs
Duration : 2 h 18 min
Bit rate : 1 131 b/s
Count of elements : 72
Stream size : 1.13 MiB (0%)
Title : Russian 3D (BD SUP) Фоорс.
Language : Russian
Default : Yes
Forced : No

Menu
00:00:00.000 : :1 - 0:00:00
00:10:08.232 : :2 - 0:10:08
00:20:18.258 : :3 - 0:20:18
00:30:37.627 : :4 - 0:30:38
00:40:38.269 : :5 - 0:40:38
00:50:08.964 : :6 - 0:50:09
01:03:01.777 : :7 - 1:03:02
01:11:55.269 : :8 - 1:11:55
01:20:14.726 : :9 - 1:20:15
01:30:58.327 : :10 - 1:30:58
01:43:26.742 : :11 - 1:43:27
01:53:02.150 : :12 - 1:53:02
02:04:20.161 : :13 - 2:04:20
02:09:17.249 : :14 - 2:09:17
02:19:58.014 : :15 - 2:19:58
Скриншоты:


Все одноименные релизы в Клубе

Смотреть Online

http://moonwalk.cc/video/33cb4e04c30356ae/iframe
Детали торрента:
Название:Первому игроку приготовиться / Ready Player One (2018) BDRip 3D [H264/1080p] [Вертикальная анаморфная стереопара]
Дата добавления:11 Июл 2018 22:33:38
Размер:9,87 GB
Раздают:91
Качают:13
Форум:Новинки (3D)

All rights reserved © 2015-2018