TORRENTS43.XYZ

Скачать Hadley Caliman - Hadley Caliman (1971) 2014, Boplicity Records [FLAC|Lossless|tracks + .cue] <Post-Bop, Soul Jazz>


Hadley Caliman - Hadley Caliman (1971) 2014, Boplicity Records
Жанр: Post-Bop, Soul Jazz
Издание: Boplicity Records - CDBOPM 030
Продолжительность: 00:37:34

Кодек: FLAC (tracks+.cue)
Битрейт: Lossless
Источник (релизер): jbdfrsn
Страна-производитель диска: EU
Наличие сканов в содержимом раздачи: да

Треклист:

01. Cigar Eddie [6:23]
02. Comencio [7:17]
03. Little One [4:46]
04. Watercress [3:49]
05. Ambivalence [7:39]
06. Dee's Glee [7:39]

Отчёт EAC:


Exact Audio Copy V1.1 from 23. June 2015

EAC extraction logfile from 21. March 2016, 17:06

Hadley Caliman / Hadley Caliman

Used drive : TSSTcorpCDDVDW SE-208DB Adapter: 1 ID: 0

Read mode : Secure
Utilize accurate stream : Yes
Defeat audio cache : Yes
Make use of C2 pointers : No

Read offset correction : 6
Overread into Lead-In and Lead-Out : No
Fill up missing offset samples with silence : Yes
Delete leading and trailing silent blocks : No
Null samples used in CRC calculations : Yes
Used interface : Native Win32 interface for Win NT & 2000
Gap handling : Appended to previous track

Used output format : User Defined Encoder
Selected bitrate : 1024 kBit/s
Quality : High
Add ID3 tag : No
Command line compressor : C:\Program Files (x86)\Exact Audio Copy\FLAC\FLAC.EXE
Additional command line options : -8 -V -T "ARTIST=%artist%" -T "TITLE=%title%" -T "ALBUM=%albumtitle%" -T "DATE=%year%" -T "TRACKNUMBER=%tracknr%" -T "GENRE=%genre%" -T "PERFORMER=%albuminterpret%" -T "COMPOSER=%composer%" %haslyrics%--tag-from-file=LYRICS="%lyricsfile%"%haslyrics% -T "ALBUMARTIST=%albumartist%" -T "DISCNUMBER=%cdnumber%" -T "TOTALDISCS=%totalcds%" -T "TOTALTRACKS=%numtracks%" -T "COMMENT=%comment%" %source% -o %dest%

TOC of the extracted CD

Track | Start | Length | Start sector | End sector
---------------------------------------------------------
1 | 0:00.00 | 6:23.28 | 0 | 28752
2 | 6:23.28 | 7:17.00 | 28753 | 61527
3 | 13:40.28 | 4:45.43 | 61528 | 82945
4 | 18:25.71 | 3:48.65 | 82946 | 100110
5 | 22:14.61 | 7:39.32 | 100111 | 134567
6 | 29:54.18 | 7:39.21 | 134568 | 169013

Track 1

Filename D:\Downloads\00 - MARIOS\3 - what.cd\00 - UPLOADS\Hadley Caliman - Same (1971) FLAC\01 - Cigar Eddie.wav

Pre-gap length 0:00:02.00

Peak level 96.5 %
Extraction speed 2.9 X
Track quality 100.0 %
Test CRC 2D23EC94
Copy CRC 2D23EC94
Accurately ripped (confidence 1) [2BD4DC04] (AR v2)
Copy OK

Track 2

Filename D:\Downloads\00 - MARIOS\3 - what.cd\00 - UPLOADS\Hadley Caliman - Same (1971) FLAC\02 - Comencio.wav

Pre-gap length 0:00:01.94

Peak level 96.5 %
Extraction speed 3.4 X
Track quality 100.0 %
Test CRC 6AB633FB
Copy CRC 6AB633FB
Accurately ripped (confidence 1) [02DEA867] (AR v2)
Copy OK

Track 3

Filename D:\Downloads\00 - MARIOS\3 - what.cd\00 - UPLOADS\Hadley Caliman - Same (1971) FLAC\03 - Little One.wav

Pre-gap length 0:00:02.05

Peak level 96.5 %
Extraction speed 3.6 X
Track quality 100.0 %
Test CRC 0C533BAF
Copy CRC 0C533BAF
Accurately ripped (confidence 1) [ADBAFBC6] (AR v2)
Copy OK

Track 4

Filename D:\Downloads\00 - MARIOS\3 - what.cd\00 - UPLOADS\Hadley Caliman - Same (1971) FLAC\04 - Blues For L.L..wav

Pre-gap length 0:00:02.08

Peak level 96.5 %
Extraction speed 3.7 X
Track quality 100.0 %
Test CRC 79275961
Copy CRC 79275961
Accurately ripped (confidence 1) [44751A23] (AR v2)
Copy OK

Track 5

Filename D:\Downloads\00 - MARIOS\3 - what.cd\00 - UPLOADS\Hadley Caliman - Same (1971) FLAC\05 - Kicking On The Inside.wav

Pre-gap length 0:00:02.48

Peak level 96.5 %
Extraction speed 4.3 X
Track quality 100.0 %
Test CRC D4CEBFBD
Copy CRC D4CEBFBD
Accurately ripped (confidence 1) [15A74B8B] (AR v2)
Copy OK

Track 6

Filename D:\Downloads\00 - MARIOS\3 - what.cd\00 - UPLOADS\Hadley Caliman - Same (1971) FLAC\06 - Longing.wav

Pre-gap length 0:00:02.48

Peak level 96.5 %
Extraction speed 4.6 X
Track quality 100.0 %
Test CRC 8F99930D
Copy CRC 8F99930D
Accurately ripped (confidence 1) [D0552C6E] (AR v2)
Copy OK

All tracks accurately ripped

No errors occurred

End of status report

---- CUETools DB Plugin V2.1.6

[CTDB TOCID: etLGxci5yptoWddyUF4tnftyBTQ-] found
Submit result: etLGxci5yptoWddyUF4tnftyBTQ- has been confirmed
Track | CTDB Status
1 | (2/2) Accurately ripped
2 | (2/2) Accurately ripped
3 | (2/2) Accurately ripped
4 | (2/2) Accurately ripped
5 | (2/2) Accurately ripped
6 | (2/2) Accurately ripped

==== Log checksum EA768ACEC3F5BEE0EF1F8CE683FF82BF17BDEC5FE56823E85364F1A778B03D55 ====

Cue Sheet (.cue):


REM GENRE Jazz
REM DATE 1971
REM DISCID 4B08CD06
REM COMMENT "ExactAudioCopy v1.1"
PERFORMER "Hadley Caliman"
TITLE "Hadley Caliman"
FILE "01 - Cigar Eddie.wav" WAVE
TRACK 01 AUDIO
TITLE "Cigar Eddie"
PERFORMER "Hadley Caliman"
INDEX 01 00:00:00
TRACK 02 AUDIO
TITLE "Comencio"
PERFORMER "Hadley Caliman"
INDEX 00 06:21:32
FILE "02 - Comencio.wav" WAVE
INDEX 01 00:00:00
TRACK 03 AUDIO
TITLE "Little One"
PERFORMER "Hadley Caliman"
INDEX 00 07:14:71
FILE "03 - Little One.wav" WAVE
INDEX 01 00:00:00
TRACK 04 AUDIO
TITLE "Watercress"
PERFORMER "Hadley Caliman"
INDEX 00 04:43:37
FILE "04 - Watercress.wav" WAVE
INDEX 01 00:00:00
TRACK 05 AUDIO
TITLE "Ambivalence"
PERFORMER "Hadley Caliman"
INDEX 00 03:46:29
FILE "05 - Ambivalence.wav" WAVE
INDEX 01 00:00:00
TRACK 06 AUDIO
TITLE "Dee's Glee"
PERFORMER "Hadley Caliman"
INDEX 00 07:36:71
FILE "06 - Dee's Glee.wav" WAVE
INDEX 01 00:00:00

Отчёт auCDtect Task manager:


-----------------------

DON'T MODIFY THIS FILE

-----------------------

PERFORMER: auCDtect Task Manager, ver. 1.6.0 RC1 build 1.6.0.1
Copyright (c) 2008-2010 y-soft. All rights reserved
http://y-soft.org

ANALYZER: auCDtect: CD records authenticity detector, version 0.8.2
Copyright (c) 2004 Oleg Berngardt. All rights reserved.
Copyright (c) 2004 Alexander Djourik. All rights reserved.

FILE: 06 - Dee's Glee.flac
Size: 50065153 Hash: 1E7471F449AE5F9CCFA019A6466309C6 Accuracy: -m0
Conclusion: CDDA 100%
Signature: 4E5D65AD4DE6CDA7373CB0D1060335F859C494AF
FILE: 05 - Ambivalence.flac
Size: 50699977 Hash: 3B1D5BDDC6DF931128D14F25DAA3CDD8 Accuracy: -m0
Conclusion: CDDA 100%
Signature: 379C235F00902916938EAA3B6CDD4F2627B58FA3
FILE: 04 - Watercress.flac
Size: 26012891 Hash: B652365F4BFE0022A76019068DD180D4 Accuracy: -m0
Conclusion: CDDA 100%
Signature: D6E9C684EC8819E9D1E6AE7BAE1AF961515BB411
FILE: 03 - Little One.flac
Size: 30761824 Hash: 5B7477E702926E2B23FFF9BF31DE7822 Accuracy: -m0
Conclusion: CDDA 100%
Signature: 60B285F77584BA08DACD70CA194FE6B9CFE37A09
FILE: 02 - Comencio.flac
Size: 47243031 Hash: 9383E645BDA5872C478BCE2C56D4A789 Accuracy: -m0
Conclusion: CDDA 100%
Signature: 702CD6D4F5B799CA6C17A76B1A42B3D9BBC3BD2D
FILE: 01 - Cigar Eddie.flac
Size: 39900732 Hash: 88C9DF8F9B4F2152AA34127441D51FCC Accuracy: -m0
Conclusion: CDDA 100%
Signature: A357085927E3DB8AFC2D160DCF1959E63891123A

Состав

Hadley Caliman - tenor saxophone, flute


#1-3:

Larry Vuckovich - piano
John White Jr. - guitar
Bill Douglas - bass
Clarence Becton - drums

#4-6:

Luis Gasca - trumpet
Todd Cochran - piano
James Leary - bass
Woody Theus - drums
Victor Pantoja - congas
Hungria Garcia - timbales




Поглощение/вытеснение
Только с согласия релизера

gvm55

Детали торрента:
Название:Hadley Caliman - Hadley Caliman (1971) 2014, Boplicity Records [FLAC|Lossless|tracks + .cue] <Post-Bop, Soul Jazz>
Дата добавления:11 Июл 2018 12:18:19
Размер:234 MB
Раздают:4
Качают:0
Форум:Jazz (Lossless)

All rights reserved © 2015-2018