TORRENTS43.XYZ

Скачать Титан / The Titan (2018) BDRip [576p] iPad


Титан / The Titan (2018) BDRip [576p] iPad
«Сверхчеловек или чужой?»

Год выпуска: 2018
Производство: США
Жанр: Фантастика, триллер
Продолжительность: 01:37:17

Перевод: Дублированный (iTunes)
Субтитры: Русские форсированные, Русские, Английские
Режиссер: Леннарт Рафф
Актеры: Сэм Уортингтон, Тейлор Шиллинг, Том Уилкинсон, Агнесс Дейн, Натали Эммануэль, Ноа Джуп, Кори Джонсон, Александр Йованович, Диего Бонета, Аарон Хеффернан

Мировая премьера: 3 февраля 2018



Описание: Американский военный Рик принимает участие в грандиозной космической программе. Лучшие умы планеты пытаются создать сверхлюдей, которые после гибели Земли обеспечат продолжение существования человечества на планете Титан. Однако эксперимент по скрещиванию генов Homo sapiens с инопланетным существом приводит к совершенно непредсказуемым последствиям.
Качество: BDRip 576p
Контейнер: M4V
Видео: H.264, 1024x432, 2.40:1, 2 200 Kbps, 23.976 fps

Аудио 1: Русский/Дублированный (iTunes), AAC / 2.0 / 128 Kbps / 48.0 KHz
Аудио 2: Английский/Оригинальная дорожка , AAC / 2.0 / 128 Kbps / 48.0 KHz

iTunes Meta Tags

Код: выделить все

Sort Name: Titan
XID: Apple:vendor_id:2018-930555
contentID: 1355785084
Copyright: © 2017 Reliance Entertainment Productions 3 Ltd. All Rights Reserved.
Screenwriters: Макс Харвитц, Араш Амель
Producers: Араш Амель, Фред Бергер, Леон Клэранс
Director: Леннарт Рафф
Cast: Сэм Уортингтон, Тейлор Шиллинг, Том Уилкинсон, Агнесс Дейн, Натали Эммануэль, Кори Джонсон, Александр Йованович, Аарон Хеффернан, Натали Поса, Стивен Кри
Studio: Signature Entertainment
Rating: 125
Long Description: Американский военный Рик принимает участие в грандиозной космической программе. Лучшие умы планеты пытаются создать сверхлюдей, которые после гибели Земли обеспечат продолжение существования человечества на планете Титан. Однако эксперимент по скрещиванию генов Homo sapiens с инопланетным существом приводит к совершенно непредсказуемым последствиям.
Description: Американский военный Рик принимает участие в грандиозной космической программе. Лучшие умы планеты пытаются создать сверхлюдей, которые после гибели Земли обеспечат продолжение существования человечества на планете Титан. Однако эксперимент по скрещиванию генов Homo sapiens с инопланетным существом приводит к совершенно непредсказуемым последствиям.
Release Date: 2018-02-03T08:00:00Z
Genre: Sci-Fi & Fantasy
Artist: Lennart Ruff
Name: The Titan

MediaInfo

Код: выделить все

General
Complete name                            : /Users/imac/HandBrake/The.Titan.(SD).(pk).m4v
Format                                   : MPEG-4
Codec ID                                 : M4V  (M4V /M4A /mp42/isom)
File size                                : 1.67 GiB
Duration                                 : 1h 37mn
Overall bit rate mode                    : Variable
Overall bit rate                         : 2 461 Kbps
Movie name                               : The Titan
Performer                                : Lennart Ruff
Director                                 : Леннарт Рафф
Actor                                    : Сэм Уортингтон / Тейлор Шиллинг / Том Уилкинсон / Агнесс Дейн / Натали Эммануэль / Кори Джонсон / Александр Йованович / Аарон Хеффернан / Натали Поса / Стивен Кри
Screenplay by                            : Макс Харвитц / Араш Амель
Producer                                 : Араш Амель / Фред Бергер / Леон Клэранс
Production studio                        : Signature Entertainment
Genre                                    : Sci-Fi & Fantasy
ContentType                              : Short Film
Description                              : Американский военный Рик принимает участие в грандиозной космической программе. Лучшие умы планеты пытаются создать сверхлюдей, которые после гибели Земли обеспечат продолжение существования человечества на планете Титан. Однако эксперимент по скрещиванию генов Homo sapiens с инопланетным существом приводит к совершенно непредсказуемым последствиям.
Recorded date                            : UTC 2018-02-03 08:00:00
Encoded date                             : UTC 2018-05-16 08:47:49
Tagged date                              : UTC 2018-05-16 08:49:50
Copyright                                : © 2017 Reliance Entertainment Productions 3 Ltd. All Rights Reserved.
Cover                                    : Yes
Rating                                   : None
Title/Sort                               : Titan
LongDescription                          : Американский военный Рик принимает участие в грандиозной космической программе. Лучшие умы планеты пытаются создать сверхлюдей, которые после гибели Земли обеспечат продолжение существования человечества на планете Титан. Однако эксперимент по скрещиванию генов Homo sapiens с инопланетным существом приводит к совершенно непредсказуемым последствиям.
AppleStoreCatalogID                      : 1355785084
Vendor                                   : Apple:vendor_id:2018-930555
ContentRating                            : uk-movie|15|350|

Video #1
ID                                       : 1
Format                                   : AVC
Format/Info                              : Advanced Video Codec
Format profile                           : High@L3.1
Format settings                          : CABAC / 9 Ref Frames
Format settings, CABAC                   : Yes
Format settings, ReFrames                : 9 frames
Codec ID                                 : avc1
Codec ID/Info                            : Advanced Video Coding
Duration                                 : 1h 37mn
Source duration                          : 1h 37mn
Bit rate                                 : 2 200 Kbps
Width                                    : 1 024 pixels
Height                                   : 432 pixels
Display aspect ratio                     : 2.40:1
Frame rate mode                          : Variable
Frame rate                               : 23.976 fps
Minimum frame rate                       : 23.810 fps
Maximum frame rate                       : 23.981 fps
Color space                              : YUV
Chroma subsampling                       : 4:2:0
Bit depth                                : 8 bits
Scan type                                : Progressive
Bits/(Pixel*Frame)                       : 0.207
Stream size                              : 1.50 GiB (89%)
Source stream size                       : 1.50 GiB (89%)
Title                                    : Main Program
Writing library                          : x264 core 155 r2893 b00bcaf
Encoding settings                        : cabac=1 / ref=9 / deblock=1:0:0 / analyse=0x3:0x113 / me=umh / subme=9 / psy=1 / psy_rd=1.00:0.00 / mixed_ref=1 / me_range=32 / chroma_me=1 / trellis=1 / 8x8dct=1 / cqm=0 / deadzone=21,11 / fast_pskip=1 / chroma_qp_offset=-2 / threads=13 / lookahead_threads=1 / sliced_threads=0 / nr=0 / decimate=1 / interlaced=0 / bluray_compat=0 / constrained_intra=0 / bframes=6 / b_pyramid=2 / b_adapt=2 / b_bias=0 / direct=1 / weightb=1 / open_gop=0 / weightp=2 / keyint=240 / keyint_min=24 / scenecut=40 / intra_refresh=0 / rc_lookahead=40 / rc=2pass / mbtree=1 / bitrate=2200 / ratetol=1.0 / qcomp=0.60 / qpmin=0 / qpmax=69 / qpstep=4 / cplxblur=20.0 / qblur=0.5 / ip_ratio=1.40 / aq=1:1.00
Language                                 : English
Encoded date                             : UTC 2018-05-16 08:47:49
Tagged date                              : UTC 2018-05-16 08:47:54
Color range                              : Limited
Color primaries                          : BT.709
Transfer characteristics                 : BT.709
Matrix coefficients                      : BT.709
Menus                                    : 7,8

Video #2
ID                                       : 8
Format                                   : JPEG
Codec ID                                 : jpeg
Duration                                 : 1h 37mn
Bit rate mode                            : Variable
Bit rate                                 : 396 bps
Width                                    : 640 pixels
Height                                   : 270 pixels
Display aspect ratio                     : 2.40:1
Frame rate mode                          : Variable
Frame rate                               : 0.002 fps
Minimum frame rate                       : 0.002 fps
Maximum frame rate                       : 0.003 fps
Color space                              : YUV
Chroma subsampling                       : 4:2:0
Bit depth                                : 8 bits
Compression mode                         : Lossy
Bits/(Pixel*Frame)                       : 1.146
Stream size                              : 290 KiB (0%)
Title                                    : Chapter Images
Language                                 : English
Default                                  : No
Encoded date                             : UTC 2018-05-16 08:48:01
Tagged date                              : UTC 2018-05-16 08:48:01
Menu For                                 : 1
ColorSpace_ICC                           : RGB

Audio #1
ID                                       : 2
Format                                   : AAC
Format/Info                              : Advanced Audio Codec
Format profile                           : LC
Codec ID                                 : mp4a-40-2
Duration                                 : 1h 37mn
Source duration                          : 1h 37mn
Bit rate mode                            : Variable
Bit rate                                 : 125 Kbps
Maximum bit rate                         : 188 Kbps
Channel(s)                               : 2 channels
Channel positions                        : Front: L R
Sampling rate                            : 48.0 KHz
Frame rate                               : 46.875 fps (1024 SPF)
Compression mode                         : Lossy
Stream size                              : 87.2 MiB (5%)
Source stream size                       : 87.2 MiB (5%)
Title                                    : Russian Stereo
Language                                 : Russian
Default                                  : Yes
Alternate group                          : 1
Encoded date                             : UTC 2018-05-16 08:47:49
Tagged date                              : UTC 2018-05-16 08:47:58
Subtitles                                : 4,5

Audio #2
ID                                       : 3
Format                                   : AAC
Format/Info                              : Advanced Audio Codec
Format profile                           : LC
Codec ID                                 : mp4a-40-2
Duration                                 : 1h 37mn
Source duration                          : 1h 37mn
Bit rate mode                            : Variable
Bit rate                                 : 126 Kbps
Maximum bit rate                         : 189 Kbps
Channel(s)                               : 2 channels
Channel positions                        : Front: L R
Sampling rate                            : 48.0 KHz
Frame rate                               : 46.875 fps (1024 SPF)
Compression mode                         : Lossy
Stream size                              : 88.0 MiB (5%)
Source stream size                       : 88.0 MiB (5%)
Title                                    : English Stereo
Language                                 : English
Default                                  : No
Alternate group                          : 1
Encoded date                             : UTC 2018-05-16 08:47:49
Tagged date                              : UTC 2018-05-16 08:47:58

Text #1
ID                                       : 4
Format                                   : Timed Text
Muxing mode                              : sbtl
Codec ID                                 : tx3g
Duration                                 : 53mn 16s
Bit rate mode                            : Variable
Bit rate                                 : 1 bps
Stream size                              : 290 Bytes (0%)
Title                                    : Russian forced
Language                                 : Russian
Default                                  : Yes
Forced                                   : Yes
Alternate group                          : 2
Encoded date                             : UTC 2018-05-16 08:47:49
Tagged date                              : UTC 2018-05-16 08:47:51
Subtitles For                            : 2
Full Alternative                         : 5

Text #2
ID                                       : 5
Format                                   : Timed Text
Muxing mode                              : sbtl
Codec ID                                 : tx3g
Duration                                 : 1h 29mn
Bit rate mode                            : Variable
Bit rate                                 : 59 bps
Stream size                              : 38.5 KiB (0%)
Title                                    : Russian full
Language                                 : Russian
Default                                  : No
Forced                                   : No
Alternate group                          : 2
Encoded date                             : UTC 2018-05-16 08:47:49
Tagged date                              : UTC 2018-05-16 08:47:52
Subtitles For                            : 2
Forced Alternative                       : 4

Text #3
ID                                       : 6
Format                                   : Timed Text
Muxing mode                              : sbtl
Codec ID                                 : tx3g
Duration                                 : 1h 29mn
Bit rate mode                            : Variable
Bit rate                                 : 33 bps
Stream size                              : 21.6 KiB (0%)
Title                                    : English full
Language                                 : English
Default                                  : No
Forced                                   : No
Alternate group                          : 2
Encoded date                             : UTC 2018-05-16 08:47:49
Tagged date                              : UTC 2018-05-16 08:47:52

Menu #1
00:00:00.000                             : 00:00:00.000
00:08:09.574                             : 00:08:09.542
00:17:13.911                             : 00:17:13.875
00:26:26.841                             : 00:26:26.833
00:34:24.027                             : 00:34:24.000
00:41:54.770                             : 00:41:54.750
00:49:07.704                             : 00:49:07.667
00:58:29.308                             : 00:58:29.292
01:05:34.108                             : 01:05:34.083
01:13:52.316                             : 01:13:52.292
01:23:17.924                             : 01:23:17.917
01:31:54.275                             : 01:31:54.250

Menu #2
ID                                       : 7
Codec ID                                 : text
Duration                                 : 1h 37mn
Language                                 : English
Encoded date                             : UTC 2018-05-16 08:47:58
Tagged date                              : UTC 2018-05-16 08:47:58
Bit rate mode                            : CBR
Menu For                                 : 1
00:00:00.000                             : 00:00:00.000
00:08:09.574                             : 00:08:09.542
00:17:13.911                             : 00:17:13.875
00:26:26.841                             : 00:26:26.833
00:34:24.027                             : 00:34:24.000
00:41:54.770                             : 00:41:54.750
00:49:07.704                             : 00:49:07.667
00:58:29.308                             : 00:58:29.292
01:05:34.108                             : 01:05:34.083
01:13:52.316                             : 01:13:52.292
01:23:17.924                             : 01:23:17.917
01:31:54.275                             : 01:31:54.250

x264 лог

Код: выделить все

x264 [info]: frame I:1268  Avg QP:10.75  size: 75349
x264 [info]: frame P:32217 Avg QP:13.58  size: 23899
x264 [info]: frame B:106481 Avg QP:15.25  size:  6952
x264 [info]: consecutive B-frames:  2.9%  3.5% 10.7% 17.1% 19.3% 39.2%  7.3%
x264 [info]: mb I  I16..4: 13.4% 64.1% 22.5%
x264 [info]: mb P  I16..4:  2.2%  8.4%  2.7%  P16..4: 32.9% 27.1% 16.7%  0.0%  0.0%    skip:10.0%
x264 [info]: mb B  I16..4:  0.2%  0.7%  0.4%  B16..8: 36.7% 13.3%  3.7%  direct: 4.3%  skip:40.8%  L0:45.3% L1:42.1% BI:12.6%
x264 [info]: 8x8 transform intra:61.3% inter:69.9%
x264 [info]: coded y,uvDC,uvAC intra: 82.0% 87.5% 73.9% inter: 25.2% 24.6% 8.4%
x264 [info]: i16 v,h,dc,p: 31% 15%  5% 49%
x264 [info]: i8 v,h,dc,ddl,ddr,vr,hd,vl,hu: 12% 11%  7%  9% 12% 12% 12% 12% 13%
x264 [info]: i4 v,h,dc,ddl,ddr,vr,hd,vl,hu: 10% 10%  4%  9% 14% 14% 13% 11% 13%
x264 [info]: i8c dc,h,v,p: 43% 23% 18% 16%
x264 [info]: Weighted P-Frames: Y:3.8% UV:2.1%
x264 [info]: ref P L0: 51.0%  8.6% 15.8%  7.1%  5.4%  4.2%  3.4%  2.2%  2.1%  0.1%  0.0%
x264 [info]: ref B L0: 72.6% 12.1%  6.3%  3.2%  2.4%  1.9%  1.2%  0.4%
x264 [info]: ref B L1: 94.1%  5.9%
x264 [info]: kb/s:2200.49

Скриншоты:




Все одноименные релизы в Клубе


Релиз подготовлен для просмотра на Apple TV, iPad, iPhone, iPod Touch.
Для просмотра данного релиза на компьютере с ОС Windows рекомендуется использовать VLC media player

Смотреть Online

http://moonwalk.cc/video/e9ffc015a3e3641e/iframe
Детали торрента:
Название:Титан / The Titan (2018) BDRip [576p] iPad
Дата добавления:16 Май 2018 12:04:17
Размер:1,67 GB
Раздают:19
Качают:0
Форум:Зарубежное видео для устройств Apple

All rights reserved © 2015-2018