TORRENTS43.XYZ

Скачать В погоне за драконами / Chui lung / Chasing the Dragon (2017) BDRip [H.264/1080p] [EN, CHI / EN Sub]


В погоне за драконами / Chui lung / Chasing the Dragon (2017) BDRip [H.264/1080p] [EN, CHI / EN Sub]
Производство: Гонконг, Китай / Bona Film Group, Bullet Films, Infinitus Entertainment
Жанр: Боевик, Криминал, Биография, История

Режиссер: Вон Цзин, Джейсон Кван
Продюсер: Энди Лау, Конни Вон, Донни Йен, ...
Актеры: Донни Йен, Энди Лау, Филип Кюн, Уилфред Лау, Юй Кан, Кент Чэн, Брайан Ларкин, Бен ЭнДжи, Кен Тон, Ракель Сюй ...

Описание:
1963 год. Один колхозник решает бежать из коммунистического Китая в коррумпированный и продажный Гонконг, чтобы навсегда променять работу в поле на профессию ещё одного уличного головореза. Ради светлого будущего и куска хлеба упорный нелегал соглашается вступить в войну между преступными кланами.


Премьера (мир): 28 сентября 2017, ...

Продолжительность: 02:08:48
Качество видео: BDRip 1080p
Перевод: Отсутствует
Язык озвучки: Английский, Китайский
Субтитры: Английские

Видео: AVC, 1920x800 (2.40:1), 24.000 fps, 9 128 Kbps (0.248 bit/pixel)
Аудио #1: DTS, 48.0 KHz, 6 ch, 1 510 Kbps, CBR (Chinese)
Аудио #2: DTS, 48.0 KHz, 6 ch, 1 510 Kbps, CBR (English)

Mediainfo:

General
Complete name : Chasing.the.Dragon.2017.LIMITED.1080p.BluRay.x264-USURY.mkv
Format : Matroska
Format version : Version 4 / Version 2
File size : 10.9 GiB
Duration : 2 h 8 min
Overall bit rate : 12.1 Mb/s
Encoded date : UTC 2018-05-02 14:16:20
Writing application : mkvmerge v8.3.0 ('Over the Horizon') 64bit
Writing library : libebml v1.3.1 + libmatroska v1.4.2

Video
ID : 1
Format : AVC
Format/Info : Advanced Video Codec
Format profile : High@L4.1
Format settings : CABAC / 5 Ref Frames
Format settings, CABAC : Yes
Format settings, ReFrames : 5 frames
Codec ID : V_MPEG4/ISO/AVC
Duration : 2 h 8 min
Bit rate : 9 128 kb/s
Width : 1 920 pixels
Height : 800 pixels
Display aspect ratio : 2.40:1
Frame rate mode : Constant
Frame rate : 24.000 FPS
Color space : YUV
Chroma subsampling : 4:2:0
Bit depth : 8 bits
Scan type : Progressive
Bits/(Pixel*Frame) : 0.248
Stream size : 8.21 GiB (75%)
Writing library : x264 core 155 r2901 7d0ff22
Encoding settings : cabac=1 / ref=5 / deblock=1:-3:-3 / analyse=0x3:0x133 / me=umh / subme=9 / psy=1 / psy_rd=1.00:0.00 / mixed_ref=1 / me_range=16 / chroma_me=1 / trellis=2 / 8x8dct=1 / cqm=0 / deadzone=21,11 / fast_pskip=0 / chroma_qp_offset=-2 / threads=24 / lookahead_threads=2 / sliced_threads=0 / nr=0 / decimate=1 / interlaced=0 / bluray_compat=0 / constrained_intra=0 / bframes=3 / b_pyramid=2 / b_adapt=1 / b_bias=0 / direct=3 / weightb=1 / open_gop=0 / weightp=2 / keyint=240 / keyint_min=24 / scenecut=40 / intra_refresh=0 / rc_lookahead=50 / rc=2pass / mbtree=1 / bitrate=9128 / ratetol=1.0 / qcomp=0.60 / qpmin=0 / qpmax=69 / qpstep=4 / cplxblur=20.0 / qblur=0.5 / ip_ratio=1.40 / aq=1:1.00
Language : English
Default : Yes
Forced : No

Audio #1
ID : 2
Format : DTS
Format/Info : Digital Theater Systems
Codec ID : A_DTS
Duration : 2 h 8 min
Bit rate mode : Constant
Bit rate : 1 509 kb/s
Channel(s) : 6 channels
Channel positions : Front: L C R, Side: L R, LFE
Sampling rate : 48.0 kHz
Frame rate : 93.750 FPS (512 SPF)
Bit depth : 24 bits
Compression mode : Lossy
Stream size : 1.36 GiB (12%)
Language : Chinese
Default : Yes
Forced : No

Audio #2
ID : 3
Format : DTS
Format/Info : Digital Theater Systems
Codec ID : A_DTS
Duration : 2 h 8 min
Bit rate mode : Constant
Bit rate : 1 509 kb/s
Channel(s) : 6 channels
Channel positions : Front: L C R, Side: L R, LFE
Sampling rate : 48.0 kHz
Frame rate : 93.750 FPS (512 SPF)
Bit depth : 24 bits
Compression mode : Lossy
Stream size : 1.36 GiB (12%)
Language : English
Default : No
Forced : No

Text
ID : 4
Format : UTF-8
Codec ID : S_TEXT/UTF8
Codec ID/Info : UTF-8 Plain Text
Duration : 2 h 3 min
Bit rate : 57 b/s
Count of elements : 1763
Stream size : 52.1 KiB (0%)
Title : English
Language : English
Default : Yes
Forced : Yes

Menu
00:00:00.000 : en:00:00:00.000
00:07:44.292 : en:00:07:44.292
00:14:21.208 : en:00:14:21.208
00:22:50.417 : en:00:22:50.417
00:32:28.875 : en:00:32:28.875
00:39:39.250 : en:00:39:39.250
00:47:14.625 : en:00:47:14.625
01:04:36.250 : en:01:04:36.250
01:14:20.875 : en:01:14:20.875
01:23:43.333 : en:01:23:43.333
01:31:10.958 : en:01:31:10.958
01:41:38.167 : en:01:41:38.167
01:51:44.292 : en:01:51:44.292
02:00:13.500 : en:02:00:13.500
Скриншоты:

Дополнительные скриншоты:





Все одноименные релизы в Клубе

Смотреть Online

http://moonwalk.cc/video/3b819b8a58f81d35/iframe
Детали торрента:
Название:В погоне за драконами / Chui lung / Chasing the Dragon (2017) BDRip [H.264/1080p] [EN, CHI / EN Sub]
Дата добавления:11 Май 2018 18:59:48
Размер:10,9 GB
Раздают:3
Качают:0
Форум:Фильмы в оригинале (HD)

All rights reserved © 2015-2018