TORRENTS43.XYZ

Скачать Чёрная Пантера / Black Panther (2018) BDRip [H.264]


Чёрная Пантера / Black Panther (2018) BDRip [H.264]
Производство: США / Marvel Studios Inc., Walt Disney Pictures.
Жанр: фантастика, боевик, приключения

Режиссер: Райан Куглер
Актеры: Чэдвик Боузмэн, Майкл Б. Джордан, Лупита Нионго, Данай Джекесай Гурира, Мартин Фриман, Дэниэл Калуя, Летишиа Райт, Уинстон Дьюк, Стерлинг К. Браун, Анджела Бассетт

Описание:
С первого взгляда можно решить, что Ваканда — обычная территория дикой Африки, но это не так. Здесь, в недрах пустынных земель, скрываются залежи уникального металла, способного поглощать вибрацию. Многие пытались добраться до него, разоряя всё на своём пути и принося смерть аборигенам, но каждый раз таинственный дух саванны — Чёрная Пантера — вставал на защиту угнетённых.
Спустя много лет беда снова приходит в Ваканду, и в этот раз враг заручился поддержкой современных технологий. Когда шансов почти не остаётся, Т`Чалла, молодой принц Ваканды, узнаёт, что именно ему предстоит возродить легенду и продолжить вечную борьбу, надев маску Чёрной Пантеры.


Возраст: 16+ (зрителям, достигшим 16 лет)
Рейтинг MPAA: PG-13 (детям до 13 лет просмотр нежелателен)
Премьера (мир): 29 января 2018
Премьера (РФ): 26 февраля 2018, «WDSSPR» 3D


Релиз: potroks (HELLYWOOD)
Продолжительность: 02:14:44
Качество видео: BDRip
Перевод: Дублированный (iTunes)
Субтитры: русские (форс. + полные)

Видео: AVC/H.264, 956x400, ~1358 kbps
Аудио: AC-3, 48.0 KHz, 2 ch, 192 Kbps

Mediainfo:

Общее
Уникальный идентификатор : 171085158946341288355989884016357767415 (0x80B5CD95B35EB091820FCA2E848378F7)
Полное имя : F:\MKV_AVC\Chernaya.Pantera.2018.RUS.BDRip.x264.torrents43.xyzv
Формат : Matroska
Версия формата : Version 4 / Version 2
Размер файла : 1,46 Гбайт
Продолжительность : 2 ч. 14 м.
Общий поток : 1550 Кбит/сек
Название фильма : Black Panther (2018)
Дата кодирования : UTC 2018-05-10 20:53:24
Программа кодирования : mkvmerge v5.9.0 ('On The Loose') built on Dec 15 2012 16:39:58
Библиотека кодирования : libebml v1.3.0 + libmatroska v1.4.0

Видео
Идентификатор : 1
Формат : AVC
Формат/Информация : Advanced Video Codec
Профиль формата : High@L4.1
Параметр CABAC формата : Да
Параметр ReFrames формата : 12 кадров
Идентификатор кодека : V_MPEG4/ISO/AVC
Продолжительность : 2 ч. 14 м.
Битрейт : 1358 Кбит/сек
Ширина : 956 пикселей
Высота : 400 пикселей
Соотношение сторон : 2,40:1
Режим частоты кадров : Постоянный
Частота кадров : 23,976 (24000/1001) кадра/сек
Цветовое пространство : YUV
Субдискретизация насыщенности : 4:2:0
Битовая глубина : 8 бит
Тип развёртки : Прогрессивная
Бит/(Пиксели*Кадры) : 0.148
Размер потока : 1,25 Гбайт (86%)
Заголовок : potroks
Библиотека кодирования : x264 core 155 r2901M 7d0ff22
Настройки программы : cabac=1 / ref=12 / deblock=1:-2:-2 / analyse=0x3:0x133 / me=umh / subme=11 / psy=1 / psy_rd=1.00:0.05 / mixed_ref=1 / me_range=48 / chroma_me=1 / trellis=2 / 8x8dct=1 / cqm=0 / deadzone=21,11 / fast_pskip=0 / chroma_qp_offset=-3 / threads=9 / lookahead_threads=2 / sliced_threads=0 / nr=0 / decimate=0 / interlaced=0 / bluray_compat=0 / constrained_intra=0 / bframes=12 / b_pyramid=2 / b_adapt=2 / b_bias=0 / direct=3 / weightb=1 / open_gop=0 / weightp=2 / keyint=240 / keyint_min=23 / scenecut=40 / intra_refresh=0 / rc_lookahead=100 / rc=2pass / mbtree=0 / bitrate=1358 / ratetol=1.0 / qcomp=0.70 / qpmin=0 / qpmax=69 / qpstep=4 / cplxblur=20.0 / qblur=0.5 / vbv_maxrate=50000 / vbv_bufsize=50000 / nal_hrd=none / filler=0 / ip_ratio=1.40 / pb_ratio=1.30 / aq=2:0.80
Язык : English
Default : Да
Forced : Нет

Аудио
Идентификатор : 2
Формат : AC-3
Формат/Информация : Audio Coding 3
Расширение режима : CM (complete main)
Параметр Endianness формата : Big
Идентификатор кодека : A_AC3
Продолжительность : 2 ч. 14 м.
Вид битрейта : Постоянный
Битрейт : 192 Кбит/сек
Каналы : 2 канала
Расположение каналов : Front: L R
Частота : 48,0 КГц
Частота кадров : 31,250 кадров/сек (1536 spf)
Битовая глубина : 16 бит
Метод сжатия : С потерями
Размер потока : 185 Мбайт (12%)
Заголовок : Dub | DD 2.0 @ 192 kbps - iTunes
Язык : Russian
Default : Да
Forced : Нет

Текст #1
Идентификатор : 3
Формат : UTF-8
Идентификатор кодека : S_TEXT/UTF8
Идентификатор кодека/Информация : UTF-8 Plain Text
Заголовок : Forced
Язык : Russian
Default : Да
Forced : Нет

Текст #2
Идентификатор : 4
Формат : UTF-8
Идентификатор кодека : S_TEXT/UTF8
Идентификатор кодека/Информация : UTF-8 Plain Text
Заголовок : Focs
Язык : Russian
Default : Нет
Forced : Нет

Меню
00:00:00.000 : :00:00:00.000
00:06:56.291 : :00:06:56.291
00:12:02.805 : :00:12:02.805
00:19:12.360 : :00:19:12.360
00:28:32.961 : :00:28:32.961
00:33:11.698 : :00:33:11.698
00:40:57.497 : :00:40:57.497
00:48:34.036 : :00:48:34.036
00:53:46.098 : :00:53:46.098
01:01:57.339 : :01:01:57.339
01:08:33.026 : :01:08:33.026
01:16:46.769 : :01:16:46.769
01:22:24.022 : :01:22:24.022
01:31:21.434 : :01:31:21.434
01:41:15.361 : :01:41:15.361
01:50:56.483 : :01:50:56.483
01:59:16.941 : :01:59:16.941
02:02:43.648 : :02:02:43.648

Скриншоты:

Релизы фильма на NNM Club

Смотреть Online

http://moonwalk.cc/video/7beb93c36e146287/iframe
Детали торрента:
Название:Чёрная Пантера / Black Panther (2018) BDRip [H.264]
Дата добавления:11 Май 2018 01:22:26
Размер:1,46 GB
Раздают:124
Качают:1
Форум:Зарубежные Новинки (HD*Rip/LQ, DVDRip)

All rights reserved © 2015-2018