TORRENTS43.XYZ

Скачать History Channel. Американская книга тайн / America's Book of Secrets (2012) HDTVRip (сезон 1, серий 7 из 11) (Обновляемая)


Американская книга тайн / America's Book of Secrets (2012) HDTVRip (сезон 1, серий 7 из 11)
Производство: США, A&E Television Networks, History Channel
Жанр: Документальный, познавательный, история

Описание:
Большая часть американской истории тщательно задокументирована и доступна широкой публике. Но у Америки есть свои тайны, которые не разгаданы до сих пор. Некоторые люди верят в существование особой книги. Книги, в которой записаны самые тщательно охраняемые секреты Соединенных Штатов Америки. Книги, о самом существовании которой знают только немногие. Но если такая книга существует, о чем в ней написано? О тайных историях? Тайных контактах? Секретных миссиях? Тайных планах? Тайных методах? Существует ли на самом деле «Книга секретов Америки»?



Релиз от: alf62
Продолжительность: 7 x ~ 00:41:28
Качество видео: HDTVRip
Перевод: Документальный дубляж (голос рассказчика - дубляж, интервью - одноголосый закадровый перевод)

Видео: Xvid, 720x400, ~1900 Kbps
Аудио: AC3, 2 ch, 192 Kbps

Содержание/список серий

Нумерация серий согласно https://www.imdb.com/title/tt2198333/

1. Памятники / The Monuments

2. Белый дом / The White House
В этой серии рассказывается о секретных протоколах, элитных охранных подразделениях и тайной истории Белого дома. Белый дом ревниво хранит свои тайны - их охраняют тщательнее, чем самого президента. Но все тайное когда-то становится явным.

3. Масоны (Вольные каменщики) / Freemasons
Масоны - самое закрытое из всех тайных обществ Америки. В него входят наиболее влиятельные люди Америки и всего мира. В этой серии речь пойдет о тайной истории масонов, об их ритуалах и планах.

4. Зона 51 / Area 51
В этой серии рассказывается о тайнах «Зоны 51», засекреченной военной базе в Неваде, о проектах, которые там разрабатывают, и о многочисленных теориях заговора, связанных с этим местом.

5. Особняк «Плейбой Меншн»: тайная история / The Playboy Mansion

6. Президентский транспорт / Presidential Transports
В этой серии рассказывается о тщательно охраняемом транспорте президента США, включая самолеты, морские суда и бронированный лимузин.

7. Форт-Нокс / Fort Knox
На территории военной базы Форт-Нокс располагается хранилище золотого запаса США. В этой серии рассказывается о том, какие с ним связаны политические осложнения, какие тайны хранятся там, кроме золота, и как организована безопасность хранилища.

8. ФБР / The FBI
В этой серии рассказывается о тайной подготовке агентов, удивительных электронных устройствах и спецоперациях ФБР.

9. Вест-Пойнт: Секретные ритуалы / West Point
Это самая престижная военная академия в мире. Здесь традиции соединяются с новейшими технологиями и разработками. Но эта стартовая площадка американской армейской элиты скрывает немало секретов.

10. Секретные операции: Тайная история / Black Ops
11. Пентагон: секретный город / The Pentagon

Mediainfo:


Общее
Полное имя : E:\Запись\Американская книга тайн\Американская.книга.тайн.S1.2012.XviD.HDTVRip.alf62\02.Белый.дом.XviD.HDTVRip.alf62 .avi
Формат : AVI
Формат/Информация : Audio Video Interleave
Размер файла : 623 Мбайт
Продолжительность : 41 м.
Общий поток : 2101 Кбит/сек
Программа кодирования : VirtualDubMod 1.5.10.3 | www.virtualdub-fr.org || (build 2550/release)
Библиотека кодирования : VirtualDubMod build 2550/release

Видео
Идентификатор : 0
Формат : MPEG-4 Visual
Профиль формата : Advanced Simple@L5
Параметр BVOP формата : 2
Параметр QPel формата : Нет
Параметр GMC формата : Без точки перехода
Параметр матрицы формата : Default (MPEG)
Идентификатор кодека : XVID
Идентификатор кодека/Подсказка : XviD
Продолжительность : 41 м.
Битрейт : 1900 Кбит/сек
Ширина : 720 пикселей
Высота : 400 пикселей
Соотношение сторон : 16:9
Частота кадров : 25,000 кадров/сек
Цветовое пространство : YUV
Субдискретизация насыщенности : 4:2:0
Битовая глубина : 8 бит
Тип развёртки : Прогрессивная
Метод сжатия : С потерями
Бит/(Пиксели*Кадры) : 0.264
Размер потока : 564 Мбайт (90%)
Библиотека кодирования : XviD 73

Аудио
Идентификатор : 1
Формат : AC-3
Формат/Информация : Audio Coding 3
Расширение режима : CM (complete main)
Параметр Endianness формата : Big
Идентификатор кодека : 2000
Продолжительность : 41 м.
Вид битрейта : Постоянный
Битрейт : 192 Кбит/сек
Каналы : 2 канала
Расположение каналов : Front: L R
Частота : 48,0 КГц
Битовая глубина : 16 бит
Метод сжатия : С потерями
Размер потока : 57,0 Мбайт (9%)
Выравнивание : Разделение по промежуткам
Продолжительность промежутка : 40 мс. (1,00 видеокадр)
Время предзагрузки промежутка : 500 мс.
Скриншоты:

Дополнительные скриншоты:





Все одноименные релизы в Клубе
Детали торрента:
Название:History Channel. Американская книга тайн / America's Book of Secrets (2012) HDTVRip (сезон 1, серий 7 из 11) (Обновляемая)
Дата добавления:02 Май 2018 21:36:39
Размер:4,26 GB
Раздают:5
Качают:0
Форум:History Channel

All rights reserved © 2015-2018